Вы используете незарегистрированную версию компонента "Вкладки"!

Поиск

1971 Chester Thompson - Powerhouse (2020) {Black Jazz} [24-96]

1971 Chester Thompson - Powerhouse (2020) {Black Jazz} [24-96]
Стили:
Битрейт аудио:
lossless
Доп. инфо:

Формат записи/Источник записи: [TR24][OF]
Издание: Remastered
Год издания/переиздания диска: 1971/2020
Издатель (лейбл): Black Jazz Records
Продолжительность: 00:27:41
Наличие сканов в содержимом раздачи: Нет

Контейнер: FLAC (*.flac)
Тип рипа: tracks
Разрядность: 24/96
Количество каналов: 2.0

Источник (релизер): HIGHRESAUDIO

Лог проверки качества
foobar2000 1.4.3 / Dynamic Range Meter 1.1.1
log date: 2020-04-26 13:53:04

--------------------------------------------------------------------------------
Analyzed: Chester Thompson / Powerhouse
--------------------------------------------------------------------------------

DR         Peak         RMS     Duration Track
--------------------------------------------------------------------------------
DR11      -1.22 dB   -13.12 dB      6:21 01-Mr. T
DR11      -1.21 dB   -14.41 dB      8:59 02-Trip One
DR11      -1.22 dB   -13.89 dB      5:49 03-Weird Harold
DR11      -1.22 dB   -13.74 dB      6:33 04-Power House
--------------------------------------------------------------------------------

Number of tracks:  4
Official DR value: DR11

Samplerate:        96000 Hz
Channels:          2
Bits per sample:   24
Bitrate:           2773 kbps
Codec:             FLAC
================================================================================
Any questions - support@pro-jazz.com. Есть вопросы - support@pro-jazz.com
07:28
251
Нет комментариев. Ваш будет первым!