Вы используете незарегистрированную версию компонента "Вкладки"!

Поиск

1978 Sonny Stitt - Sonny Stitt Meets Sadik Hakim {2xHD} [24-192]

1978 Sonny Stitt - Sonny Stitt Meets Sadik Hakim {2xHD} [24-192]
Стили:
Дата записи диска:
28 апреля 1978
Место записи:
Downtown Sound Studio, New York, NY
Издатель (лейбл):
Битрейт аудио:
lossless
Доп. инфо:

Формат записи/Источник записи: [TR24][OF]
Издание: Remastered
Год издания/переиздания диска: 1978/2019
Издатель (лейбл): 2xHD
Продолжительность: 00:41:06
Наличие сканов в содержимом раздачи: Буклет PDF

Контейнер: FLAC (*.flac)
Тип рипа: tracks
Разрядность: 24/192
Количество каналов: 2.0

Источник (релизер): PROSTUDIOMASTERS

Лог проверки качества
foobar2000 1.3.7 / Dynamic Range Meter 1.1.1
log date: 2019-05-23 13:40:38

--------------------------------------------------------------------------------
Analyzed: Sonny Stitt & Sadik Hakim / Sonny Stitt Meets Sadik Hakim (Remastered)
--------------------------------------------------------------------------------

DR         Peak         RMS     Duration Track
--------------------------------------------------------------------------------
DR14      -1.64 dB   -18.47 dB      6:50 01-You Are the Sunshine of My Life
DR13      -1.78 dB   -18.57 dB      7:28 02-'Round Midnight (take 1): 'Round Midnight
DR14      -0.88 dB   -18.54 dB      5:54 03-Born to Dance: Born to Dance: Easy to love
DR15      -0.64 dB   -18.93 dB      4:08 04-South Georgia Blues
DR14      -1.00 dB   -18.27 dB      4:53 05-All God's Children Got Rhythm
DR14      -1.61 dB   -19.15 dB      3:52 06-Fine and Dandy
DR13      -2.96 dB   -19.33 dB      4:13 07-Jumbo: Jumbo: Little Girl Blue
DR13      -1.87 dB   -18.71 dB      3:53 08-Christopher Street Jump
--------------------------------------------------------------------------------

Number of tracks:  8
Official DR value: DR14

Samplerate:        192000 Hz
Channels:          2
Bits per sample:   24
Bitrate:           5109 kbps
Codec:             FLAC
================================================================================
Any questions - support@pro-jazz.com. Есть вопросы - support@pro-jazz.com
07:04
252
Нет комментариев. Ваш будет первым!