Вы используете незарегистрированную версию компонента "Вкладки"!

Поиск

1963 The Salt City Six - The Salt City Six Plays the Classics in Dixieland {2xHD} [24-192]

1963 The Salt City Six - The Salt City Six Plays the Classics in Dixieland {2xHD} [24-192]
Стили:
Издатель (лейбл):
Битрейт аудио:
lossless
Доп. инфо:

Формат записи/Источник записи: [TR24][OF]
Издание: Remastered
Год издания/переиздания диска: 1963/2020
Издатель (лейбл): 2xHD
Продолжительность: 00:30:29
Наличие сканов в содержимом раздачи: Буклет PDF

Контейнер: FLAC (*.flac)
Тип рипа: tracks
Разрядность: 24/192
Формат: LPCM
Количество каналов: 2.0

Источник (релизер): hdtracks.com

Лог проверки качества
foobar2000 1.5.3 / Dynamic Range Meter 1.1.1
log date: 2020-04-26 09:25:42

--------------------------------------------------------------------------------
Analyzed: The Salt City Six / The Salt City Six Plays the Classics in Dixieland (Remastered)
--------------------------------------------------------------------------------

DR         Peak         RMS     Duration Track
--------------------------------------------------------------------------------
DR15       0.00 dB   -18.49 dB      9:26 01-William Tell Overture
DR13      -0.94 dB   -17.83 dB      5:58 02-Granada
DR13      -1.33 dB   -18.25 dB      4:03 03-Ciriibiribin
DR13      -1.27 dB   -21.46 dB      4:55 04-New Orleans
DR13      -0.92 dB   -17.92 dB      2:51 05-El Capitan
DR14      -3.17 dB   -19.89 dB      3:19 06-Ah, so Pure!
--------------------------------------------------------------------------------

Number of tracks:  6
Official DR value: DR13

Samplerate:        192000 Hz
Channels:          2
Bits per sample:   24
Bitrate:           5104 kbps
Codec:             FLAC
================================================================================
Any questions - support@pro-jazz.com. Есть вопросы - support@pro-jazz.com
23:49
267
Нет комментариев. Ваш будет первым!