Вы используете незарегистрированную версию компонента "Вкладки"!

Поиск

2009 Amanda Martinez - Amor (2015) {2xHD} [DSD64]

2009 Amanda Martinez - Amor (2015) {2xHD} [DSD64]
Издатель (лейбл):
Битрейт аудио:
lossless
Доп. инфо:

Формат записи/Источник записи: [DSD][OF]
Наличие водяных знаков: Нет
Издание: Remastered
Год издания/переиздания диска: 2009 / 2015
Продолжительность: 45:04
Наличие сканов в содержимом раздачи: Буклет PDF

Контейнер: DSF (*.dsf)
Тип рипа: tracks
Разрядность: 64(2,8 MHz/1 Bit)
Формат: DSD
Количество каналов: 2.0

Источник (релизер): https://store.acousticsounds.com/d/109248/Amanda_Martinez-Amor-DSD_Single_Rate_28MHz64fs_Download

Лог проверки качества
foobar2000 1.5.2 / Dynamic Range Meter 1.1.1
log date: 2020-04-26 02:20:48

--------------------------------------------------------------------------------
Analyzed: Amanda Martinez & Kevin Laliberté / Amor (1)
          Amanda Martinez, Alexander Brown, Kevin Laliberté, Osvaldo Rodriguez & Rosendo Chendy Leon / Amor (2)
          Amanda Martinez, Kevin Laliberté & Kevin Fox / Amor (3)
          Amanda Martinez, Kevin Laliberté & Rosendo Chendy Leon / Amor (4)
          Amanda Martinez, Kevin Laliberté, Drew Birston & Rosendo Chendy Leon / Amor (5)
          Amanda Martinez, Kevin Laliberté, Drew Birston, Kevin Fox & Rosendo Chendy Leon / Amor (6)
          Amanda Martinez, Kevin Laliberté, Kevin Fox & Rosendo Chendy Leon / Amor (7)
          Amanda Martinez, Kevin Laliberté, Osvaldo Rodriguez & Rosendo Chendy Leon / Amor (8)
          Amanda Martinez, Kevin Laliberté, Robi Botos & Rosendo Chendy Leon / Amor (9)
          Amanda Martinez, Rosendo Chendy Leon, Osvaldo Rodriguez & Kevin Laliberté / Amor (10)
          Amanda Martinez, Rosendo Chendy Leon, Osvaldo Rodriguez, Alexander Brown, Kevin Laliberté & Robi Botos / Amor (11)
          Amanda Martinez, Rosendo Chendy Leon, Osvaldo Rodriguez, Kevin Laliberté & Tom Szczesniak / Amor (12)
--------------------------------------------------------------------------------

DR         Peak         RMS     Duration Track
--------------------------------------------------------------------------------
DR11      -9.49 dB   -24.15 dB      5:13 12-Cucurrucucú paloma
DR15      -3.01 dB   -19.75 dB      3:52 06-Alma mía
DR14      -4.10 dB   -20.32 dB      4:23 11-Te prometo
DR13      -3.61 dB   -18.21 dB      3:32 04-Mí primavera
DR13      -3.56 dB   -18.99 dB      2:24 09-La tormenta
DR11      -5.92 dB   -19.62 dB      3:06 05-Hasta que pueda
DR14      -3.47 dB   -19.38 dB      4:16 07-Lupe's Song
DR13      -3.62 dB   -19.74 dB      3:18 02-Alcoba azul
DR13      -6.51 dB   -21.70 dB      3:41 08-Soňando
DR13      -4.30 dB   -19.84 dB      3:38 01-Gitana
DR12      -4.70 dB   -19.00 dB      3:57 03-Tómalo
DR15      -3.79 dB   -21.75 dB      3:45 10-Amor
--------------------------------------------------------------------------------

Number of tracks:  12
Official DR value: DR13

Samplerate:        2822400 Hz / PCM Samplerate: 352800 Hz
Channels:          2
Bits per sample:   1
Bitrate:           5645 kbps
Codec:             DSD64
================================================================================
Any questions - support@pro-jazz.com. Есть вопросы - support@pro-jazz.com
23:39
369
Нет комментариев. Ваш будет первым!