Вы используете незарегистрированную версию компонента "Вкладки"!

Поиск

2020 Koki Nakano - Pre-Choreographed {Nø Førmat!} [24-96]

2020 Koki Nakano - Pre-Choreographed {Nø Førmat!} [24-96]
Издатель (лейбл):
Битрейт аудио:
lossless
Доп. инфо:

Формат записи/Источник записи: [TR24][OF]
Наличие водяных знаков: Нет
Год издания/переиздания диска: 2020
Издатель (лейбл): Nø Førmat!
Продолжительность: 00:32:31
Наличие сканов в содержимом раздачи: Только обложка альбома
Источник (релизер): highresaudio

Контейнер: FLAC (*.flac)
Тип рипа: tracks
Разрядность: 24/96
Формат: PCM
Количество каналов: 2.0

Доп. информация: http://kokinakano.com/

Лог проверки качества
foobar2000 1.1.15 / Dynamic Range Meter 1.1.1
log date: 2020-04-25 16:24:49

--------------------------------------------------------------------------------
Analyzed: Koki Nakano / Pre-Choreographed
--------------------------------------------------------------------------------

DR         Peak         RMS     Duration Track
--------------------------------------------------------------------------------
DR10      -0.87 dB   -14.23 dB      2:35 01-Overlay
DR7       -0.66 dB   -12.10 dB      2:59 02-Bloomer
DR9       -0.87 dB   -13.79 dB      2:48 03-Near-Perfect Synchronization
DR11      -0.95 dB   -16.47 dB      3:16 04-Choreographed Mollusks
DR10      -0.95 dB   -13.63 dB      2:54 05-Minim
DR10      -1.05 dB   -14.85 dB      2:22 06-Palinopsia
DR11      -0.99 dB   -14.66 dB      3:15 07-Genou respirant
DR8       -0.75 dB   -13.14 dB      3:29 08-Graftage
DR12      -1.18 dB   -17.31 dB      2:31 09-Berceuse
DR8       -0.71 dB   -11.46 dB      2:40 10-Train-train
DR10      -0.82 dB   -15.52 dB      3:42 11-Faire le poirier
--------------------------------------------------------------------------------

Number of tracks:  11
Official DR value: DR10

Samplerate:        96000 Hz
Channels:          2
Bits per sample:   24
Bitrate:           2507 kbps
Codec:             FLAC
================================================================================
Any questions - support@pro-jazz.com. Есть вопросы - support@pro-jazz.com
21:30
273
Нет комментариев. Ваш будет первым!