Вы используете незарегистрированную версию компонента "Вкладки"!

Поиск

2018 Cigány Weaver - Live @ Coma {Club COMA} [24-48]

2018 Cigány Weaver - Live @ Coma {Club COMA} [24-48]
Стили:
Битрейт аудио:
lossless
Доп. инфо:

Формат записи/Источник записи: [TR24][OF]
Год издания: 2018
Издатель (лейбл): Club COMA Adelaide, Australia
Продолжительность: 26:02
Наличие сканов в содержимом раздачи: Front

Контейнер: FLAC (*.flac)
Тип рипа: tracks
Разрядность: 24/48
Формат: LPCM
Количество каналов: 2.0

Источник (релизер): Bandcamp

Лог проверки качества
foobar2000 1.3.3 / Dynamic Range Meter 1.1.1
log date: 2020-04-27 15:02:57

--------------------------------------------------------------------------------
Analyzed: Cigány Weaver / Cigány Weaver @ Coma 2018 04 16
--------------------------------------------------------------------------------

DR         Peak         RMS     Duration Track
--------------------------------------------------------------------------------
DR13      -0.31 dB   -16.44 dB      3:55 01-Basil
DR13      -0.33 dB   -18.55 dB      6:03 02-Clouds
DR12      -0.31 dB   -15.66 dB      5:20 03-Janome
DR14      -0.31 dB   -17.59 dB      2:38 04-Swampy Hop
DR13      -0.34 dB   -16.05 dB      2:23 05-Swing 13
DR13      -0.31 dB   -16.31 dB      5:44 06-Pourtant
--------------------------------------------------------------------------------

Number of tracks:  6
Official DR value: DR13

Samplerate:        48000 Hz
Channels:          2
Bits per sample:   24
Bitrate:           1523 kbps
Codec:             FLAC
================================================================================
Any questions - support@pro-jazz.com. Есть вопросы - support@pro-jazz.com
06:59
277
Нет комментариев. Ваш будет первым!