Поиск

2020 Thomas Dutronc - Frenchy {Universal, Decca} [24-44,1]

2020 Thomas Dutronc - Frenchy {Universal, Decca} [24-44,1]
Издатель (лейбл):
Битрейт аудио:
lossless

Треклист:

01. C'est si bon (feat. Iggy Pop & Diana Krall) (3:24)
02. La vie en rose (feat. Billy Gibbons) (3:47)
03. Plus je t'embrasse (2:52)
04. Playground Love (feat. Youn Sun Nah) (4:14)
05. Petite fleur (4:13)
06. Un homme et une femme (feat. Stacey Kent) (3:01)
07. La mer (4:07)
08. Get Lucky (4:05)
09. Minor Swing (2:23)
10. All For You (4:32)
11. If You Go Away (feat. Haley Reinhart) (3:16)
12. Autumn Leaves (4:06)
13. My Way (4:39)
14. La belle vie - The Good Life (feat. Jeff Goldblum) (3:43)

Состав:
  • Iggy Pop, vocals
  • Diana Krall, vocals
  • Youn Sun Nah, vocals
  • Billy Gibbons, vocals
  • Jeff Goldblum, vocals
  • Stacey Kent, vocals
  • Haley Reinhart, vocals
  • Thomas Dutronc, guitar
  • Rocky Gresset, guitar
  • Éric Legnini, piano
  • Thomas Bramerie, double bass
  • Denis Benarrosh, drums

Produced by Vincent Carpentier

Доп. инфо:

Формат записи/Источник записи: [TR24][OF]
Наличие водяных знаков: Нет
Год издания/переиздания диска: 2020
Продолжительность: 00:52:05
Наличие сканов в содержимом раздачи: Только обложка альбома
Источник (релизер): highresaudio

Контейнер: FLAC (*.flac)
Тип рипа: tracks
Разрядность: 24/44,1
Формат: PCM
Количество каналов: 2.0

Лог проверки качества
foobar2000 1.1.15 / Dynamic Range Meter 1.1.1
log date: 2020-06-25 13:39:45

--------------------------------------------------------------------------------
Analyzed: Thomas Dutronc / Frenchy
--------------------------------------------------------------------------------

DR         Peak         RMS     Duration Track
--------------------------------------------------------------------------------
DR8       -0.50 dB   -10.08 dB      3:24 01-C'est si bon
DR9       -0.50 dB   -12.06 dB      3:47 02-La vie en rose
DR8       -0.50 dB    -9.82 dB      2:52 03-Plus je t'embrasse
DR8       -0.50 dB   -11.39 dB      4:14 04-Playground Love
DR9       -0.50 dB   -11.57 dB      4:13 05-Petite fleur
DR9       -0.50 dB   -11.65 dB      3:01 06-Un homme et une femme
DR8       -0.50 dB    -9.33 dB      4:07 07-La mer
DR8       -0.50 dB    -9.76 dB      4:05 08-Get Lucky
DR8       -0.50 dB    -9.73 dB      2:23 09-Minor Swing
DR8       -0.50 dB    -9.99 dB      4:33 10-All For You
DR7       -0.50 dB    -9.97 dB      3:16 11-If You Go Away
DR9       -0.50 dB   -12.14 dB      4:05 12-Autumn Leaves
DR9       -0.50 dB   -11.83 dB      4:39 13-My Way
DR9       -0.50 dB   -11.34 dB      3:42 14-La belle vie - The Good Life
--------------------------------------------------------------------------------

Number of tracks:  14
Official DR value: DR8

Samplerate:        44100 Hz
Channels:          2
Bits per sample:   24
Bitrate:           1498 kbps
Codec:             FLAC
================================================================================
По всем вопросам пишите личное сообщение пользователю M0p94ok.
07:55
545
Нет комментариев. Ваш будет первым!