Вы используете незарегистрированную версию компонента "Вкладки"!

Поиск

2020 Convergence - Convergence {Florian Arbenz Hammer} [24-48]

2020 Convergence - Convergence {Florian Arbenz Hammer} [24-48]
Битрейт аудио:
lossless
Доп. инфо:

Формат записи/Источник записи: [TR24][OF]
Наличие водяных знаков: Нет
Год издания/переиздания диска: 2020
Продолжительность: 53:36 min
Наличие сканов в содержимом раздачи: Нет

Контейнер: FLAC (*.flac)
Тип рипа: tracks
Разрядность: 24/48
Формат: PCM
Количество каналов: 2.0

Источник (релизер): bandcamp.com
Композитор: Florian Arbenz

Лог проверки качества
foobar2000 1.4.2 / Замер динамического диапазона (DR) 1.1.1
Дата отчёта:  2020-06-25 11:41:27

--------------------------------------------------------------------------------
Анализ:   Convergence / Convergence
--------------------------------------------------------------------------------

DR         Пики         RMS           Продолжительность трека
--------------------------------------------------------------------------------
DR12      -0.55 дБ   -13.97 дБ      6:56 01-Little Idea
DR13      -0.55 дБ   -16.62 дБ      7:17 02-Translacion
DR11      -0.54 дБ   -13.81 дБ      7:04 03-Fast Lane
DR12      -0.55 дБ   -15.58 дБ      5:06 04-Ambar
DR12      -0.55 дБ   -13.46 дБ      6:45 05-Sound
DR13      -0.75 дБ   -18.49 дБ      5:59 06-Nocturne
DR12      -0.55 дБ   -13.71 дБ      7:02 07-Strong Steps
DR11      -0.54 дБ   -13.74 дБ      7:27 08-Edificio
--------------------------------------------------------------------------------

Количество треков: 8
Реальные значения DR: DR12

Частота:   48000 Гц
Каналов:   2
Разрядность:   24
Битрейт:   1703 кбит/с
Кодек:   FLAC
================================================================================
Any questions - support@pro-jazz.com. Есть вопросы - support@pro-jazz.com
08:46
304
Нет комментариев. Ваш будет первым!