Вы используете незарегистрированную версию компонента "Вкладки"!

Поиск

2020 The L.A. Network - Ella On Our Mind {2xHD Mastering, Resonance} [DSD256]

2020 The L.A. Network - Ella On Our Mind {2xHD Mastering, Resonance} [DSD256]
Стили:
Издатель (лейбл):
Битрейт аудио:
lossless
Время звучания:
00:32:09
Доп. инфо:

Формат записи/Источник записи: [DSD][OF]
Наличие водяных знаков: Нет
Год издания/переиздания диска: 2020
Продолжительность: 32:19
Наличие сканов в содержимом раздачи: Буклет PDF

Контейнер: DSF (*.dsf)
Тип рипа: tracks
Разрядность: 256(12.3 MHz/1 Bit)
Формат: DSD256
Количество каналов: 2.0
pic

Лог проверки качества
foobar2000 1.5.2 / Dynamic Range Meter 1.1.1
log date: 2020-10-16 00:35:09

--------------------------------------------------------------------------------
Analyzed: Aubrey Logan / The L.A. Network: Ella On Our Mind
--------------------------------------------------------------------------------

DR         Peak         RMS     Duration Track
--------------------------------------------------------------------------------
DR12      -7.87 dB   -23.98 dB      5:03 01-Our Love Is Here To Stay
DR13     -10.05 dB   -28.53 dB      5:34 02-Will Be Together Again
DR13     -11.40 dB   -30.01 dB      5:10 03-Lush Life
DR14      -7.41 dB   -25.22 dB      4:41 04-Hernando's Hideway
DR12      -9.04 dB   -26.35 dB      4:24 05-How Long Has This Been Going On
DR13      -7.56 dB   -24.24 dB      3:09 06-Too Darn Hot
DR13      -7.07 dB   -24.52 dB      4:17 07-Summertime
--------------------------------------------------------------------------------

Number of tracks:  7
Official DR value: DR13

Samplerate:        11289600 Hz / PCM Samplerate: 176400 Hz
Channels:          2
Bits per sample:   1
Bitrate:           22579 kbps
Codec:             DSD256
================================================================================
Any questions - support@pro-jazz.com. Есть вопросы - support@pro-jazz.com
14:46
263
Нет комментариев. Ваш будет первым!