Поиск

2019 Utopik - Différentes perspectives {Onze Heures Onze ONZ031} [24-44,1]

2019 Utopik - Différentes perspectives {Onze Heures Onze ONZ031} [24-44,1]
Стили:
Дата издания диска:
22 марта 2019
Номер по каталогу:
ONZ031 843497
Носитель:
WEB
Формат:
PCM
Тип рипа:
tracks+.cue
Контейнер:
APE (*.ape)
Количество каналов:
2.0
Разрядность/ЧД:
24/44,1
Битрейт аудио:
lossless
Время звучания:
01:09:10
Наличие сканов:
web
Страна-производитель диска (релиза):
France
Релизёр (источник):
M0p94ok
Лог проверки качества
foobar2000 1.5.5 / Dynamic Range Meter 1.1.1
log date: 2020-11-23 23:44:43

--------------------------------------------------------------------------------
Analyzed: Utopik / Différentes perspectives
--------------------------------------------------------------------------------

DR         Peak         RMS     Duration Track
--------------------------------------------------------------------------------
DR11      -0.10 dB   -13.19 dB      6:09 01-Eloge de l'oisiveté
DR10      -0.10 dB   -11.91 dB      8:33 02-Xcessiv Patriot
DR10      -0.09 dB   -13.54 dB      5:48 03-Autopsie d'un mirage
DR11      -0.10 dB   -14.36 dB      4:53 04-Fuite en avant
DR9       -0.08 dB   -11.92 dB     10:44 05-Lampedusa
DR9       -0.07 dB   -11.08 dB      5:37 06-Z.A.D.
DR9       -0.09 dB   -11.18 dB      6:33 07-Siesta mécanique
DR11      -0.10 dB   -13.41 dB      5:25 08-Désordre
DR9       -0.09 dB   -11.50 dB      6:56 09-Elastonocturne
DR10      -0.09 dB   -10.97 dB      2:44 10-Chronophage
DR14      -0.11 dB   -19.78 dB      5:55 11-Charter
--------------------------------------------------------------------------------

Number of tracks:  11
Official DR value: DR10

Samplerate:        44100 Hz
Channels:          2
Bits per sample:   24
Bitrate:           1345 kbps
Codec:             FLAC
================================================================================
No seeders - write personal message to M0p94ok. Any questions - support@pro-jazz.com.
Нет сидеров - пишите в личку M0p94ok. Есть вопросы - support@pro-jazz.com
01:11
200
Нет комментариев. Ваш будет первым!