Вы используете незарегистрированную версию компонента "Вкладки"!

Поиск

1962 Vince Guaraldi Trio - Jazz Impressions Of Black Orpheus (2018) {RevOla} [24-44,1]

1962 Vince Guaraldi Trio - Jazz Impressions Of Black Orpheus (2018) {RevOla} [24-44,1]
Стили:
Дата записи диска:
1 ноября 1961, февраль 1962
Место записи:
KQED television studio, San Francisco, California, USA
Дата издания диска:
18 апреля 1962
Дата переиздания диска:
26 сентября 2018
Издатель (лейбл):
Носитель:
WEB
Формат:
PCM
Тип рипа:
tracks+.cue
Контейнер:
APE (*.ape)
Количество каналов:
2.0
Разрядность/ЧД:
24/44,1
Битрейт аудио:
lossless
Время звучания:
01:01:44
Наличие сканов:
web
Релизёр (источник):
M0p94ok
Лог проверки качества
foobar2000 1.3.16 / Dynamic Range Meter 1.1.1
log date: 2019-03-26 23:44:49

--------------------------------------------------------------------------------
Analyzed: Vince Guaraldi Trio / Jazz Impressions Of Black Orpheus
--------------------------------------------------------------------------------

DR         Peak         RMS     Duration Track
--------------------------------------------------------------------------------
DR9        0.00 dB   -11.91 dB      5:43 01-Samba De Orfeu (remastered)
DR10       0.00 dB   -13.50 dB      5:51 02-Manha De Carnalval (remastered)
DR7        0.00 dB   -10.08 dB      4:57 03-O Nosso Amor (remastered)
DR7        0.00 dB   -10.14 dB      4:50 04-Felicidade (remastered)
DR9        0.00 dB   -11.06 dB      3:10 05-Cast Your Fate To The Wind (remastered)
DR8        0.00 dB   -10.52 dB      5:21 06-Moon River (remastered)
DR8        0.00 dB   -10.55 dB      5:01 07-Alma-Ville (remastered)
DR8        0.00 dB   -12.49 dB      4:24 08-Since I Fell For You (remastered)
DR5        0.00 dB    -6.94 dB      3:19 09-Samba De Orfeu (Single Version) (remastered)
DR8        0.00 dB   -11.92 dB      6:17 10-Manha De Carnaval (Take 2) (remastered)
DR5        0.00 dB    -8.65 dB      5:01 11-O Nosso Amor (Take 2) (remastered)
DR7        0.00 dB    -9.82 dB      4:55 12-Felicidade (Take 3) (remastered)
DR7        0.00 dB    -9.92 dB      3:05 13-Cast Your Fate To The Wind (Take 3) (remastered)
--------------------------------------------------------------------------------

Number of tracks:  13
Official DR value: DR7

Samplerate:        44100 Hz
Channels:          2
Bits per sample:   24
Bitrate:           1601 kbps
Codec:             FLAC
================================================================================
Any questions - support@pro-jazz.com. Есть вопросы - support@pro-jazz.com
00:33
247
Нет комментариев. Ваш будет первым!