Вы используете незарегистрированную версию компонента "Вкладки"!

Поиск

2017 Woodlander - Calvins Toboggan {QFTF} [24-88,2]

2017 Woodlander - Calvins Toboggan {QFTF} [24-88,2]
Дата издания диска:
7 апреля 2017
Номер по каталогу:
QFTF 022
Носитель:
WEB
Формат:
PCM
Тип рипа:
tracks+.cue
Контейнер:
APE (*.ape)
Количество каналов:
2.0
Разрядность/ЧД:
24/88,2
Битрейт аудио:
lossless
Время звучания:
00:45:55
Наличие сканов:
web
Релизёр (источник):
M0p94ok
Лог проверки качества
foobar2000 1.3.16 / Dynamic Range Meter 1.1.1
log date: 2019-03-25 23:49:00

--------------------------------------------------------------------------------
Analyzed: Woodlander / Calvins Toboggan
--------------------------------------------------------------------------------

DR         Peak         RMS     Duration Track
--------------------------------------------------------------------------------
DR11      -0.28 dB   -14.12 dB      4:05 01-Auren
DR10      -0.28 dB   -12.78 dB      4:42 02-Toboggan
DR10      -0.28 dB   -13.12 dB      3:49 03-Avancement
DR11      -0.28 dB   -13.28 dB      4:52 04-Hieronymus
DR9       -0.28 dB   -12.61 dB      5:25 05-Nach am Schlaf
DR11      -0.28 dB   -15.51 dB      4:53 06-Bart
DR11      -0.28 dB   -13.34 dB      3:41 07-Fahrradfahren
DR10      -0.28 dB   -13.18 dB      3:48 08-Flash da Trash
DR12      -0.28 dB   -15.02 dB      4:59 09-Linie
DR11      -2.39 dB   -19.46 dB      3:50 10-Harmoniumlied
DR12      -0.28 dB   -16.08 dB      1:54 11-Auren
--------------------------------------------------------------------------------

Number of tracks:  11
Official DR value: DR11

Samplerate:        88200 Hz
Channels:          2
Bits per sample:   24
Bitrate:           2530 kbps
Codec:             FLAC
================================================================================
Any questions - support@pro-jazz.com. Есть вопросы - support@pro-jazz.com
23:16
209
Нет комментариев. Ваш будет первым!