Поиск

2013 Uri Caine Ensemble - Rhapsody in Blue {Winter & Winter 910 205-2} [24-96]

2013 Uri Caine Ensemble - Rhapsody in Blue {Winter & Winter 910 205-2} [24-96]
Стили:
Дата записи диска:
1 декабря 2012
Место записи:
Avatar Studios, New York City, NY, USA
Дата издания диска:
18 мая 2013
Номер по каталогу:
910 205-2
Носитель:
WEB
Формат:
PCM
Тип рипа:
tracks+.cue
Контейнер:
APE (*.ape)
Количество каналов:
2.0
Разрядность/ЧД:
24/96
Битрейт аудио:
lossless
Время звучания:
00:57:59
Наличие сканов:
web
Страна-производитель диска (релиза):
Germany
Релизёр (источник):
M0p94ok
Лог проверки качества
foobar2000 1.3.16 / Dynamic Range Meter 1.1.1
log date: 2019-03-13 17:39:07

--------------------------------------------------------------------------------
Analyzed: Uri Caine Ensemble / George Gershwin : Rhapsody in Blue
--------------------------------------------------------------------------------

DR         Peak         RMS     Duration Track
--------------------------------------------------------------------------------
DR12      -0.10 dB   -16.07 dB      3:57 02-But Not for Me
DR14      -0.10 dB   -18.18 dB      3:52 03-Let's Call the Whole Thing Off
DR13      -0.11 dB   -16.75 dB      3:17 04-I Got Rhythm
DR14      -0.11 dB   -17.67 dB      5:11 05-I've Got a Crush On You
DR13      -0.10 dB   -15.49 dB      6:45 06-They Can't Take That Away from Me
DR15      -0.10 dB   -18.35 dB      3:26 07-Slap That Bass
DR14      -0.10 dB   -18.56 dB      2:59 08-Love Is Here to Stay
DR16      -0.10 dB   -21.11 dB      6:08 09-How Long Has This Been Going On
--------------------------------------------------------------------------------

Number of tracks:  8
Official DR value: DR14

Samplerate:        88200 Hz
Channels:          2
Bits per sample:   24
Bitrate:           2428 kbps
Codec:             FLAC
================================================================================

--------------------------------------------------------------------------------
Statistics for: 01-Rhapsody in Blue
Number of samples: 129493657
Duration: 22:29 
--------------------------------------------------------------------------------

                 Left              Right

Peak Value:     -0.41 dB   ---     -0.39 dB   
Avg RMS:       -17.37 dB   ---    -16.44 dB   
DR channel:     13.17 dB   ---     12.61 dB   
--------------------------------------------------------------------------------

Official DR Value: DR13

Samplerate:        96000 Hz
Channels:          2
Bits per sample:   24
Bitrate:           2829 kbps
Codec:             FLAC
================================================================================
No seeders - write personal message to M0p94ok. Any questions - support@pro-jazz.com.
Нет сидеров - пишите в личку M0p94ok. Есть вопросы - support@pro-jazz.com
15:12
199
Нет комментариев. Ваш будет первым!