Вы используете незарегистрированную версию компонента "Вкладки"!

Поиск

2019 Alan Broadbent Trio - New York Notes {Savant SCD 2166} [24-88,2]

2019 Alan Broadbent Trio - New York Notes {Savant SCD 2166} [24-88,2]
Стили:
Место записи:
RVS Studio
Дата издания диска:
12 апреля 2019
Издатель (лейбл):
Номер по каталогу:
SCD 2166
Доп. инфо:

Формат записи/Источник записи: [TR24][OF]
Год издания/переиздания диска: 2019
Издатель (лейбл): Savant
Продолжительность: 01:02:38
Наличие сканов в содержимом раздачи: Буклет PDF

Контейнер: FLAC (*.flac)
Тип рипа: tracks
Разрядность: 24/88,2
Количество каналов: 2.0

Источник (релизер): Qobuz

Лог проверки качества
foobar2000 1.3.7 / Dynamic Range Meter 1.1.1
log date: 2019-04-12 02:37:56

--------------------------------------------------------------------------------
Analyzed: Alan Broadbent Trio / New York Notes
--------------------------------------------------------------------------------

DR         Peak         RMS     Duration Track
--------------------------------------------------------------------------------
DR10      -0.50 dB   -12.62 dB      8:47 01-Clifford Notes
DR9       -0.50 dB   -10.59 dB      8:20 02-Minority
DR11      -0.51 dB   -14.62 dB      7:12 03-I Fall in Love Too Easily
DR10      -1.07 dB   -12.87 dB      8:35 04-Continuity
DR10      -0.54 dB   -12.03 dB      5:11 05-Crazeology
DR9       -0.50 dB   -10.73 dB      5:45 06-On a Misty Night
DR11      -0.57 dB   -13.99 dB      6:30 07-Waltz Prelude
DR8       -0.50 dB    -9.55 dB      4:42 08-317 East 32nd Street
DR10      -0.67 dB   -13.47 dB      7:38 09-Fine and Dandy
--------------------------------------------------------------------------------

Number of tracks:  9
Official DR value: DR10

Samplerate:        88200 Hz
Channels:          2
Bits per sample:   24
Bitrate:           2805 kbps
Codec:             FLAC
================================================================================
Any questions - support@pro-jazz.com. Есть вопросы - support@pro-jazz.com
23:34
243
Нет комментариев. Ваш будет первым!