Вы используете незарегистрированную версию компонента "Вкладки"!

Поиск

2020 Katie Melua - Album No. 8 {BMG} [24-44,1]

2020 Katie Melua - Album No. 8 {BMG} [24-44,1]
Дата издания диска:
16 октября 2020
Издатель (лейбл):
Битрейт аудио:
lossless
Доп. инфо:

Формат записи/Источник записи: [TR24][OF]
Наличие водяных знаков: Нет
Год издания/переиздания диска: 2020
Продолжительность: 00:37:15
Наличие сканов в содержимом раздачи: Только обложка альбома

Контейнер: FLAC (*.flac)
Тип рипа: tracks
Разрядность: 24/44,1
Формат: PCM
Количество каналов: 2.0

Источник (релизер): mora.jp

Лог проверки качества
foobar2000 1.6.2 beta 6 / Dynamic Range Meter 1.1.1
log date: 2020-10-15 19:32:25

--------------------------------------------------------------------------------
Analyzed: Katie Melua / Album No. 8
--------------------------------------------------------------------------------

DR         Peak         RMS     Duration Track
--------------------------------------------------------------------------------
DR10      -0.23 dB   -13.44 dB      3:07 01-A Love Like That
DR10      -0.09 dB   -13.24 dB      4:27 02-English Manner
DR11      -0.33 dB   -15.36 dB      3:36 03-Leaving the Mountain
DR10      -0.10 dB   -13.67 dB      3:35 04-Joy
DR11      -0.22 dB   -13.01 dB      4:56 05-Voices in the Night
DR9       -0.13 dB   -12.94 dB      3:20 06-Maybe I Dreamt It
DR10      -0.21 dB   -13.54 dB      3:46 07-Heading Home
DR10      -0.01 dB   -12.59 dB      3:25 08-Your Longing Is Gone
DR10      -0.25 dB   -13.53 dB      3:26 09-Airtime
DR11      -0.10 dB   -14.34 dB      3:36 10-Remind Me to Forget
--------------------------------------------------------------------------------

Number of tracks:  10
Official DR value: DR10

Samplerate:        44100 Hz
Channels:          2
Bits per sample:   24
Bitrate:           1399 kbps
Codec:             FLAC
================================================================================
Any questions - support@pro-jazz.com. Есть вопросы - support@pro-jazz.com
20:52
228
Нет комментариев. Ваш будет первым!