Поиск

2009 Diana Panton + Trio - Pink (2020) {2xHD} [24-96]

2009 Diana Panton + Trio - Pink (2020) {2xHD} [24-96]
Стили:
Дата записи диска:
1 августа 2008
Место записи:
Inception Sound Studios, Toronto, Ontario, Canada
Издатель (лейбл):
Битрейт аудио:
lossless
Треклист:

01 - Wouldn't It Be Lovely 03:50
02 - My Ideal 03:56
03 - I Walk a Little Faster 04:05
04 - My Future Just Passed 04:20
05 - Wonder Why 02:41
06 - Me Myself and I 02:32
07 - What Is There to Say? 04:00
08 - Tea for Two 04:20
09 - Please Be Kind 03:46
10 - I Wish I Knew 04:50
11 - They Didn't Believe Me 03:34
12 - Love-wise 04:36
13 - Hold Me Hold Me Hold Me 03:21
14 - Five Minutes More 03:41
15 - Wait Til You See Me 01:50

Доп. инфо:

Формат записи/Источник записи: [TR24][OF]
Год издания/переиздания диска: 2009/2020
Продолжительность: 00:55:22
Наличие сканов в содержимом раздачи: Нет

Контейнер: FLAC (*.flac)
Тип рипа: tracks
Разрядность: 24/96
Количество каналов: 2.0

Источник (релизер): e-onkyo

Лог проверки качества
foobar2000 1.4.3 / Dynamic Range Meter 1.1.1
log date: 2020-10-16 20:21:36

--------------------------------------------------------------------------------
Analyzed: Diana Panton / Pink
--------------------------------------------------------------------------------

DR         Peak         RMS     Duration Track
--------------------------------------------------------------------------------
DR9       -5.52 dB   -16.46 dB      3:53 01-Wouldn't It Be Lovely
DR10      -5.60 dB   -18.25 dB      3:58 02-My Ideal
DR11      -5.60 dB   -19.07 dB      4:05 03-I Walk a Little Faster
DR10      -5.63 dB   -18.37 dB      4:21 04-My Future Just Passed
DR9       -5.54 dB   -16.98 dB      2:44 05-Wonder Why
DR10      -5.57 dB   -17.58 dB      2:34 06-Me Myself and I
DR9       -5.59 dB   -18.07 dB      4:03 07-What Is There to Say?
DR9       -5.55 dB   -16.84 dB      4:24 08-Tea for Two
DR9       -5.47 dB   -17.03 dB      3:46 09-Please Be Kind
DR10      -5.55 dB   -19.90 dB      4:50 10-I Wish I Knew
DR9       -5.48 dB   -16.88 dB      3:37 11-They Didn't Believe Me
DR11      -5.61 dB   -19.15 dB      4:36 12-Love-wise
DR10      -5.56 dB   -17.16 dB      3:24 13-Hold Me Hold Me Hold Me
DR10      -5.57 dB   -17.19 dB      3:43 14-Five Minutes More
DR9       -5.60 dB   -18.41 dB      1:51 15-Wait Til You See Me
--------------------------------------------------------------------------------

Number of tracks:  15
Official DR value: DR10

Samplerate:        96000 Hz
Channels:          2
Bits per sample:   24
Bitrate:           2531 kbps
Codec:             FLAC
================================================================================
Приватный:
Нет (DHT включён)
Размер:
1.03 Гб (1,104,223,427 байт) » файлов: 20
Участники:
0 раздают, 0 качают (0 участников всего)
Внешние участники:
--- [ Обновить ]
No seeders - write personal message to M0p94ok. Any questions - support@pro-jazz.com.
Нет сидеров - пишите в личку M0p94ok. Есть вопросы - support@pro-jazz.com
20:59
162
Нет комментариев. Ваш будет первым!