Поиск

2020 Artemis - Artemis {Blue Note} [24-96]

2020 Artemis - Artemis {Blue Note} [24-96]
Издатель (лейбл):
Битрейт аудио:
lossless

Треклист:

01 - Goddess Of The Hunt 07:24
02 - Frida 07:21
03 - The Fool On The Hill 06:13
04 - Big Top 05:01
05 - If It's Magic 03:28
06 - Nocturno 05:27
07 - Step Forward 06:25
08 - Cry, Buttercup, Cry 05:30
09 - The Sidewinder 05:05

Доп. инфо:

Формат записи/Источник записи: [TR24][OF]
Год издания/переиздания диска: 2020
Продолжительность: 00:51:54
Наличие сканов в содержимом раздачи: Нет

Контейнер: FLAC (*.flac)
Тип рипа: tracks
Разрядность: 24/96
Количество каналов: 2.0

Источник (релизер): HIGHRESAUDIO

Лог проверки качества
foobar2000 1.3.16 / Dynamic Range Meter 1.1.1
log date: 2020-09-10 23:15:42

--------------------------------------------------------------------------------
Analyzed: ARTEMIS / Artemis
--------------------------------------------------------------------------------

DR         Peak         RMS     Duration Track
--------------------------------------------------------------------------------
DR10       0.00 dB   -12.20 dB      7:24 01-Goddess Of The Hunt
DR12      -0.12 dB   -15.19 dB      7:21 02-Frida
DR12      -0.01 dB   -15.90 dB      6:13 03-The Fool On The Hill
DR11       0.00 dB   -13.83 dB      5:01 04-Big Top
DR12      -0.03 dB   -16.94 dB      3:28 05-If It's Magic
DR11       0.00 dB   -14.93 dB      5:27 06-Nocturno
DR11       0.00 dB   -13.98 dB      6:25 07-Step Forward
DR12      -0.29 dB   -15.55 dB      5:29 08-Cry, Buttercup, Cry
DR11      -0.04 dB   -13.83 dB      5:05 09-The Sidewinder
--------------------------------------------------------------------------------

Number of tracks:  9
Official DR value: DR11

Samplerate:        96000 Hz
Channels:          2
Bits per sample:   24
Bitrate:           2996 kbps
Codec:             FLAC
================================================================================
Приватный:
Нет (DHT включён)
Размер:
1.08 Гб (1,157,891,805 байт) » файлов: 14
Участники:
0 раздают, 15 качают (15 участников всего)
Внешние участники:
--- [ Обновить ]
No seeders - write personal message to M0p94ok. Any questions - support@pro-jazz.com.
Нет сидеров - пишите в личку M0p94ok. Есть вопросы - support@pro-jazz.com
21:06
162
Нет комментариев. Ваш будет первым!