Вы используете незарегистрированную версию компонента "Вкладки"!

Поиск

1961 Etta Jones - So Warm (2019) {RevOla} [24-44,1]

1961 Etta Jones - So Warm (2019) {RevOla} [24-44,1]
Стили:
Дата переиздания диска:
19 марта 2019
Издатель (лейбл):
Битрейт аудио:
lossless
Доп. инфо:

Формат записи/Источник записи: [TR24][OF]
Издание: Remastered
Год издания/переиздания диска: 1961/2019
Продолжительность: 00:38:47
Наличие сканов в содержимом раздачи: Нет

Контейнер: FLAC (*.flac)
Тип рипа: tracks
Разрядность: 24/44,1
Количество каналов: 2.0

Источник (релизер): Qobuz

Лог проверки качества
foobar2000 1.3.16 / Dynamic Range Meter 1.1.1
log date: 2019-03-22 23:37:02

--------------------------------------------------------------------------------
Analyzed: Etta Jones / So Warm
--------------------------------------------------------------------------------

DR         Peak         RMS     Duration Track
--------------------------------------------------------------------------------
DR13      -1.89 dB   -20.68 dB      4:21 01-Unchained Melody
DR12      -2.14 dB   -18.97 dB      3:35 02-I Laughed At Love
DR13      -2.59 dB   -21.18 dB      3:10 03-You Don't Know What Love Is
DR13      -3.62 dB   -21.35 dB      3:36 04-Hurry Home
DR12      -2.71 dB   -19.83 dB      2:04 05-I Wish I Didn't Love You So
DR13      -3.11 dB   -22.89 dB      2:01 06-You Better Go Now
DR12      -1.93 dB   -18.88 dB      3:05 07-And This Is My Beloved
DR14      -1.75 dB   -20.52 dB      4:06 08-I'm Through With Love
DR10      -1.87 dB   -16.72 dB      2:45 09-If You Were Mine
DR12      -2.09 dB   -18.82 dB      2:51 10-Can You Look Me In The Eyes
DR12      -2.58 dB   -19.90 dB      3:36 11-How Deep Is The Ocean
DR12      -1.78 dB   -18.47 dB      3:42 12-All My Life
--------------------------------------------------------------------------------

Number of tracks:  12
Official DR value: DR12

Samplerate:        44100 Hz
Channels:          2
Bits per sample:   24
Bitrate:           1410 kbps
Codec:             FLAC
================================================================================
Any questions - support@pro-jazz.com. Есть вопросы - support@pro-jazz.com
22:36
253
Нет комментариев. Ваш будет первым!