Поиск

2020 Doug Webb feat. Brian Charette, Andy Sanesi - Apples & Oranges {Posi-Tone} [24-48]

2020 Doug Webb feat. Brian Charette, Andy Sanesi - Apples & Oranges {Posi-Tone} [24-48]
Стили:
Дата издания диска:
25 сентября 2020
Издатель (лейбл):
Номер по каталогу:
PR8213
Битрейт аудио:
lossless
Доп. инфо:

Формат записи/Источник записи: [TR24][OF]
Год издания/переиздания диска: 2020
Издатель (лейбл): Posi-Tone Records
Продолжительность: 00:56:39
Наличие сканов в содержимом раздачи: Нет

Контейнер: FLAC (*.flac)
Тип рипа: tracks
Разрядность: 24/48
Количество каналов: 2.0

Источник (релизер): PROSTUDIOMASTERS

Лог проверки качества
foobar2000 1.4.6 / Dynamic Range Meter 1.1.1
log date: 2020-10-06 19:57:19

--------------------------------------------------------------------------------
Analyzed: Doug Webb / Apples & Oranges
--------------------------------------------------------------------------------

DR         Peak         RMS     Duration Track
--------------------------------------------------------------------------------
DR12      -0.98 dB   -13.78 dB      5:51 01-Alexico
DR11      -0.98 dB   -13.05 dB      6:00 02-Monkey Face
DR11      -0.98 dB   -14.25 dB      4:07 03-Forethought
DR12      -0.98 dB   -14.61 dB      5:17 04-In A Sentimental Mood
DR10      -0.98 dB   -12.86 dB      6:12 05-How Can I Be Sure
DR11      -0.98 dB   -13.30 dB      6:59 06-Coruba
DR11      -0.98 dB   -13.76 dB      5:46 07-Spring Is Here
DR11      -0.98 dB   -12.77 dB      5:07 08-Apples & Oranges
DR10      -0.98 dB   -13.45 dB      5:51 09-Estaté
DR11      -0.98 dB   -12.78 dB      5:34 10-For Steve
--------------------------------------------------------------------------------

Number of tracks:  10
Official DR value: DR11

Samplerate:        48000 Hz
Channels:          2
Bits per sample:   24
Bitrate:           1842 kbps
Codec:             FLAC
================================================================================
No seeders - write personal message to M0p94ok. Any questions - support@pro-jazz.com.
Нет сидеров - пишите в личку M0p94ok. Есть вопросы - support@pro-jazz.com
23:18
246
Нет комментариев. Ваш будет первым!