Поиск

1976 George Duke - Liberated Fantasies (2015) {MPS} [24-88,2]

1976 George Duke - Liberated Fantasies (2015) {MPS} [24-88,2]
Стили:
Место записи:
Paramount Recording Studios, Hollywood, CA, USA
Дата переиздания диска:
15 мая 2015
Издатель (лейбл):
Номер по каталогу:
CC 228 355
Битрейт аудио:
lossless
Доп. инфо:

Формат записи/Источник записи: [TR24][OF]
Издание: Remastered
Год издания/переиздания диска: 1976/2014
Продолжительность: 00:39:54
Наличие сканов в содержимом раздачи: Нет

Контейнер: FLAC (*.flac)
Тип рипа: tracks
Разрядность: 24/88,2
Количество каналов: 2.0

Источник (релизер): HIGHRESAUDIO

Лог проверки качества
foobar2000 1.3.16 / Dynamic Range Meter 1.1.1
log date: 2020-10-09 16:08:07

--------------------------------------------------------------------------------
Analyzed: George Duke, Al "Embamba" Johnson, Leon "Ndugu" Chancler / Liberated Fantasies (Remastered)
--------------------------------------------------------------------------------

DR         Peak         RMS     Duration Track
--------------------------------------------------------------------------------
DR14      -1.62 dB   -18.05 dB      2:59 01-Don't Be Shy
DR14      -1.14 dB   -18.19 dB      4:30 02-Seeing You
DR15      -0.82 dB   -17.44 dB      6:26 03-Back to Where We Never Left
DR17      -6.72 dB   -28.32 dB      0:30 04-What The...
DR14      -0.83 dB   -17.91 dB      5:48 05-Tryin' & Cryin'
DR15      -0.82 dB   -17.74 dB      5:19 06-I C'n Hear That
DR15      -3.45 dB   -21.85 dB      2:33 07-After the Love
DR12      -3.14 dB   -20.91 dB      2:30 08-Tzina
DR14      -0.71 dB   -17.21 dB      9:24 09-Liberated Fantasies
--------------------------------------------------------------------------------

Number of tracks:  9
Official DR value: DR14

Samplerate:        88200 Hz
Channels:          2
Bits per sample:   24
Bitrate:           2906 kbps
Codec:             FLAC
================================================================================
No seeders - write personal message to M0p94ok. Any questions - support@pro-jazz.com.
Нет сидеров - пишите в личку M0p94ok. Есть вопросы - support@pro-jazz.com
23:34
241
Нет комментариев. Ваш будет первым!