Вы используете незарегистрированную версию компонента "Вкладки"!

Поиск

2020 Stefano Bollani - Piano Variations on Jesus Christ Superstar {Alobar} [24-48]

2020 Stefano Bollani - Piano Variations on Jesus Christ Superstar {Alobar} [24-48]
Битрейт аудио:
lossless
Доп. инфо:

Формат записи/Источник записи: [TR24][OF]
Наличие водяных знаков: Нет
Год издания/переиздания диска: 2020
Издатель (лейбл): Alobar
Продолжительность: 01:03:35
Наличие сканов в содержимом раздачи: Буклет PDF
Источник (релизер): qobuz

Контейнер: FLAC (*.flac)
Тип рипа: tracks
Разрядность: 24/48
Формат: PCM
Количество каналов: 2.0
Доп. информация: http://stefanobollani.com/

Лог проверки качества
foobar2000 1.1.15 / Dynamic Range Meter 1.1.1
log date: 2020-04-10 16:04:24

--------------------------------------------------------------------------------
Analyzed: Stefano Bollani / Piano Variations on Jesus Christ Superstar
--------------------------------------------------------------------------------

DR         Peak         RMS     Duration Track
--------------------------------------------------------------------------------
DR10      -7.34 dB   -22.33 dB      1:42 01-Prelude
DR14      -1.09 dB   -17.62 dB      4:59 02-Heaven on Their Minds
DR12      -1.08 dB   -15.80 dB      2:41 03-What's the Buzz?
DR14      -2.70 dB   -20.87 dB      1:33 04-Strange Thing, Mystifying
DR11      -3.70 dB   -18.82 dB      5:54 05-Everything's Alright
DR13      -1.09 dB   -16.71 dB      3:34 06-This Jesus Must Die
DR13      -4.18 dB   -20.84 dB      3:00 07-Hosanna
DR13      -1.07 dB   -17.29 dB      3:54 08-Simon Zealotes
DR11      -6.59 dB   -23.12 dB      2:56 09-Pilate's Dream
DR12      -2.07 dB   -18.16 dB      4:10 10-The Temple
DR13      -5.48 dB   -22.09 dB      3:20 11-I Don't Know How to Love Him
DR12      -1.08 dB   -15.95 dB      1:43 12-Damned for All Time
DR12      -5.08 dB   -21.86 dB      4:01 13-The Last Supper
DR16      -1.07 dB   -21.89 dB      7:26 14-Gethsemane (I Only Want to Say)
DR13      -1.08 dB   -16.42 dB      3:46 15-King Herod's Song
DR11      -2.70 dB   -18.03 dB      2:54 16-Trial Before Pilate
DR11      -2.47 dB   -17.43 dB      4:06 17-Superstar
DR12     -13.64 dB   -30.88 dB      1:56 18-John Nineteen: Forty-One
--------------------------------------------------------------------------------

Number of tracks:  18
Official DR value: DR12

Samplerate:        48000 Hz
Channels:          2
Bits per sample:   24
Bitrate:           1108 kbps
Codec:             FLAC
================================================================================
Any questions - support@pro-jazz.com. Есть вопросы - support@pro-jazz.com
09:23
256
Нет комментариев. Ваш будет первым!