Вы используете незарегистрированную версию компонента "Вкладки"!

Поиск

1971 Baden Powell - Estudos (2014) {MPS} [24-88,2]

1971 Baden Powell - Estudos (2014) {MPS} [24-88,2]
Битрейт аудио:
lossless
Доп. инфо:

Формат записи/Источник записи: [TR24][OF]
Издание: Remastered
Год издания/переиздания диска: 1971/2014
Издатель (лейбл): MPS
Продолжительность: 00:41:16
Наличие сканов в содержимом раздачи: Нет

Контейнер: FLAC (*.flac)
Тип рипа: tracks
Разрядность: 24/88,2
Количество каналов: 2.0

Источник (релизер): Qobuz

Лог проверки качества
foobar2000 1.3.16 / Dynamic Range Meter 1.1.1
log date: 2019-04-29 13:11:56

--------------------------------------------------------------------------------
Analyzed: Baden Powell / Estudos
--------------------------------------------------------------------------------

DR         Peak         RMS     Duration Track
--------------------------------------------------------------------------------
DR13      -1.22 dB   -16.62 dB      3:08 01-Encosta Pra Vê Se Dâ
DR14      -3.44 dB   -22.92 dB      2:55 02-Pra Valer
DR11      -0.72 dB   -15.94 dB      3:15 03-Pai
DR13      -3.48 dB   -21.19 dB      4:20 04-Serenata do Adeus
DR13      -1.98 dB   -18.78 dB      3:35 05-Tapilraiauara
DR12      -5.02 dB   -20.53 dB      2:36 06-Valsa Sem Nome
DR12      -0.86 dB   -16.38 dB      1:49 07-É Isso Aí
DR12      -4.09 dB   -20.44 dB      3:20 08-Chão de Estrêlas
DR12      -3.66 dB   -19.72 dB      3:32 09-Crepúsculo
DR11      -4.62 dB   -21.09 dB      4:27 10-Tema Triste
DR13      -4.79 dB   -19.25 dB      2:45 11-Baixo de Pau
DR12      -1.37 dB   -18.09 dB      5:41 12-Último Pôrto
--------------------------------------------------------------------------------

Number of tracks:  12
Official DR value: DR12

Samplerate:        88200 Hz
Channels:          2
Bits per sample:   24
Bitrate:           2497 kbps
Codec:             FLAC
================================================================================
Any questions - support@pro-jazz.com. Есть вопросы - support@pro-jazz.com
11:42
355
Нет комментариев. Ваш будет первым!