Вы используете незарегистрированную версию компонента "Вкладки"!

Поиск

2015 Omar Sosa Quarteto AfroCubano - Ilé {Ota, World Village} [24-44,1]

2015 Omar Sosa Quarteto AfroCubano - Ilé {Ota, World Village} [24-44,1]
Битрейт аудио:
lossless
Доп. инфо:

Формат записи/Источник записи: [TR24][OF]
Наличие водяных знаков: Нет
Год издания/переиздания диска: 2015
Издатель (лейбл): Ota Records / World Village
Продолжительность: 01:04:20
Наличие сканов в содержимом раздачи: Буклет PDF
Источник (релизер): highresaudio

Контейнер: FLAC (*.flac)
Тип рипа: tracks
Разрядность: 24/44,1
Формат: PCM
Количество каналов: 2.0

Лог проверки качества
foobar2000 1.1.15 / Dynamic Range Meter 1.1.1
log date: 2020-04-12 21:12:08

--------------------------------------------------------------------------------
Analyzed: Omar Sosa / Ilé
--------------------------------------------------------------------------------

DR         Peak         RMS     Duration Track
--------------------------------------------------------------------------------
DR8       -0.21 dB   -10.28 dB      5:32 01-A Love Lost
DR11      -0.33 dB   -15.08 dB      2:30 02-Momento I
DR12      -0.21 dB   -16.06 dB      4:01 03-4U
DR9       -0.21 dB   -11.91 dB      4:56 04-Mentiras Enemigas
DR11      -0.21 dB   -14.73 dB      4:06 05-Momento II
DR10      -0.21 dB   -13.76 dB      3:19 06-D Vuelta
DR9       -0.21 dB   -13.73 dB      7:40 07-Old Afro A Baba
DR8       -0.21 dB   -10.85 dB      5:26 08-Dame La Luz
DR12      -0.21 dB   -15.43 dB      3:11 09-Momento III
DR9       -0.21 dB   -11.72 dB      5:45 10-Sad Meeting
DR11      -0.11 dB   -14.08 dB      3:21 11-Momento IV
DR7       -0.21 dB   -10.06 dB      4:25 12-La Tarde
DR8       -0.21 dB   -11.23 dB      5:52 13-Mi Conga
DR12      -0.46 dB   -16.73 dB      4:17 14-A Love Lost Reprise
--------------------------------------------------------------------------------

Number of tracks:  14
Official DR value: DR10

Samplerate:        44100 Hz
Channels:          2
Bits per sample:   24
Bitrate:           1266 kbps
Codec:             FLAC
================================================================================
Any questions - support@pro-jazz.com. Есть вопросы - support@pro-jazz.com
11:57
290
Нет комментариев. Ваш будет первым!