Вы используете незарегистрированную версию компонента "Вкладки"!

Поиск

2020 Curtis Stigers - Gentleman {UMI Jazz Germany} [24-88,2]

2020 Curtis Stigers - Gentleman {UMI Jazz Germany} [24-88,2]
Стили:
Битрейт аудио:
lossless
Доп. инфо:

Формат записи/Источник записи: [TR24][OF]
Наличие водяных знаков: Нет
Год издания: 2020
Издатель (лейбл): UMI Jazz Germany
Продолжительность: 00:40:09
Наличие сканов в содержимом раздачи: Только обложка альбома
Контейнер: FLAC (*.flac)
Тип рипа: tracks
Разрядность: 24/88.2
Формат: PCM
Количество каналов: 2.0
Источник (релизер): qobuz.com

Лог проверки качества
foobar2000 1.4.8 / Dynamic Range Meter 1.1.1
log date: 2020-04-10 10:01:22

--------------------------------------------------------------------------------
Analyzed: Curtis Stigers / Gentleman
--------------------------------------------------------------------------------

DR         Peak         RMS     Duration Track
--------------------------------------------------------------------------------
DR11      -0.52 dB   -13.90 dB      4:16 01-Lately I've Let Things Slide
DR10      -0.51 dB   -12.28 dB      3:00 02-After You’ve Gone
DR13      -2.07 dB   -20.41 dB      2:10 03-A Lifetime Together
DR10      -0.51 dB   -12.94 dB      4:08 04-Gentleman
DR12      -0.52 dB   -16.97 dB      3:42 05-As Usual
DR11      -0.65 dB   -16.12 dB      3:26 06-Remember
DR11      -1.16 dB   -16.22 dB      3:25 07-She Knows
DR11      -0.52 dB   -13.31 dB      3:50 08-Here We Go Again
DR12      -0.53 dB   -16.47 dB      3:53 09-Shame On The Rain
DR11      -0.52 dB   -14.32 dB      3:46 10-Green Growing Under The Snow
DR13      -0.59 dB   -17.46 dB      1:57 11-Learning To Let You Go
DR12      -1.19 dB   -15.46 dB      2:40 12-Shut-Ins (Bonus Track)
--------------------------------------------------------------------------------

Number of tracks:  12
Official DR value: DR11
Samplerate:        88200 Hz
Channels:          2
Bits per sample:   24
Bitrate:           2427 kbps
Codec:             FLAC
================================================================================
Any questions - support@pro-jazz.com. Есть вопросы - support@pro-jazz.com
09:08
226
Нет комментариев. Ваш будет первым!