Поиск

2020 Rob Mazurek, Exploding Star Orchestra - Dimensional Stardust {International Anthem} [24-44,1]

2020 Rob Mazurek, Exploding Star Orchestra - Dimensional Stardust {International Anthem} [24-44,1]
Дата издания диска:
20 ноября 2020
Битрейт аудио:
lossless

Треклист:

01. 01. Sun Core Tet (Parable 99) (05:52)
02. A Wrinkle In Time Sets Concentric Circles Reeling (06:27)
03. Galaxy 1000 (03:29)
04. The Careening Prism Within (Parable 43) (02:59)
05. Abstract Dark Energy (Parable 9) (02:48)
06. Parable of Inclusion (04:03)
07. Dimensional Stardust (Parable 33) (04:26)
08. Minerals Bionic Stereo (01:45)
09. Parable 3000 (We All Come From Somewhere Else) (04:49)
10. Autumn Pleiades (06:31)

Лог проверки качества
foobar2000 1.3.9 / Dynamic Range Meter 1.1.1
log date: 2020-11-20 23:49:59

--------------------------------------------------------------------------------
Analyzed: Rob Mazurek – Exploding Star Orchestra / Dimensional Stardust
--------------------------------------------------------------------------------

DR         Peak         RMS     Duration Track
--------------------------------------------------------------------------------
DR8       -0.06 dB   -10.16 dB      5:53 1-Sun Core Tet (Parable 99)
DR7       -0.06 dB   -11.24 dB      6:28 2-A Wrinkle In Time Sets Concentric Circles Reeling
DR6       -0.06 dB    -8.82 dB      3:29 3-Galaxy 1000
DR6       -0.06 dB    -9.80 dB      2:59 4-The Careening Prism Within (Parable 43)
DR9       -0.06 dB   -12.55 dB      2:49 5-Abstract Dark Energy (Parable 9)
DR7       -0.06 dB    -9.96 dB      4:03 6-Parable of Inclusion
DR8       -0.06 dB    -9.98 dB      4:27 7-Dimensional Stardust (Parable 33)
DR10      -0.06 dB   -12.44 dB      1:45 8-Minerals Bionic Stereo
DR7       -0.06 dB    -8.95 dB      4:50 9-Parable 3000 (We All Come From Somewhere Else)
DR7       -0.06 dB   -10.06 dB      6:31 10-Autumn Pleiades
--------------------------------------------------------------------------------

Number of tracks:  10
Official DR value: DR8

Samplerate:        44100 Hz
Channels:          2
Bits per sample:   24
Bitrate:           1580 kbps
Codec:             FLAC
================================================================================
Приватный:
Нет (DHT включён)
Размер:
489.01 Мб (512,765,043 байт) » файлов: 13
Участники:
0 раздают, 1 качают (1 участников всего)
Внешние участники:
18 раздают, 6 качают (24 участников всего) [ Обновить ]
No seeders - write personal message to M0p94ok. Any questions - support@pro-jazz.com.
Нет сидеров - пишите в личку M0p94ok. Есть вопросы - support@pro-jazz.com
00:00
225
Нет комментариев. Ваш будет первым!