Вы используете незарегистрированную версию компонента "Вкладки"!

Поиск

1961 Dave Pike - It's Time for Dave Pike {RevOla} [24-44,1]

1961 Dave Pike - It's Time for Dave Pike {RevOla} [24-44,1]
Дата записи диска:
30 января и 9 февраля 1961
Место записи:
Plaza Sound Studios, New York, NY, USA
Дата переиздания диска:
29 апреля 2019
Издатель (лейбл):
Битрейт аудио:
lossless
Доп. инфо:

Формат записи/Источник записи: [TR24][OF]
Издание: Remastered
Год издания/переиздания диска: 1961/2019
Продолжительность: 00:38:15
Наличие сканов в содержимом раздачи: Нет

Контейнер: FLAC (*.flac)
Тип рипа: tracks
Разрядность: 24/44,1
Количество каналов: 2.0

Источник (релизер): Qobuz

Лог проверки качества
foobar2000 1.4.3 / Dynamic Range Meter 1.1.1
log date: 2020-11-18 16:29:05

--------------------------------------------------------------------------------
Analyzed: Dave Pike / It's Time for Dave Pike
--------------------------------------------------------------------------------

DR         Peak         RMS     Duration Track
--------------------------------------------------------------------------------
DR12      -2.23 dB   -17.28 dB      5:05 01-Cheryl
DR13      -1.92 dB   -18.13 dB      5:38 02-On Green Dolphin Street
DR12      -2.20 dB   -19.05 dB      5:42 03-It's Time
DR12      -2.45 dB   -17.77 dB      4:11 04-Hot House
DR13      -1.54 dB   -16.30 dB      5:16 05-Forward
DR11      -1.94 dB   -16.12 dB      3:20 06-Solar
DR11      -2.92 dB   -18.44 dB      3:57 07-Little Girl Blue
DR13      -2.67 dB   -18.01 dB      5:09 08-Tendin' to Business
--------------------------------------------------------------------------------

Number of tracks:  8
Official DR value: DR12

Samplerate:        44100 Hz
Channels:          2
Bits per sample:   24
Bitrate:           1544 kbps
Codec:             FLAC
================================================================================
Any questions - support@pro-jazz.com. Есть вопросы - support@pro-jazz.com
20:05
217
Нет комментариев. Ваш будет первым!