Поиск

2016 JD Allen - Americana - Musings on Jazz and Blues {Savant} [24-88,2]

2016 JD Allen - Americana - Musings on Jazz and Blues {Savant} [24-88,2]
Стили:
Дата записи диска:
7 января 2016
Место записи:
Tedesco Studios, Paramus, NJ, USA
Дата издания диска:
20 мая 2016
Издатель (лейбл):
Номер по каталогу:
SCD 2155
Носитель:
WEB
Формат:
PCM
Тип рипа:
tracks+.cue
Контейнер:
APE (*.ape)
Количество каналов:
2.0
Разрядность/ЧД:
24/88,2
Битрейт аудио:
lossless
Время звучания:
00:44:54
Наличие сканов:
да
Наличие водяных знаков:
нет
Страна-производитель диска (релиза):
USA
Релизёр (источник):
M0p94ok

Треклист:

1    Tell The Truth, Shame The Devil    6:52
2    Another Man Done Gone    5:54
3    Cotton    5:50
4    Sugar Free    5:43
5    Bigger Thomas    4:16
6    Americana    4:51
7    Lightnin'    5:52
8    If You're Lonesome, Then You're Not Alone    2:50
9    Lillie Mae Jones    3:31

Лог проверки качества
foobar2000 1.6.2 / Dynamic Range Meter 1.1.1
log date: 2021-01-09 23:26:33

--------------------------------------------------------------------------------
Analyzed: JD Allen / Americana: Musings on Jazz and Blues
--------------------------------------------------------------------------------

DR         Peak         RMS     Duration Track
--------------------------------------------------------------------------------
DR11      -0.50 dB   -13.38 dB      6:46 01-Tell the Truth, Shame the Devil
DR12      -0.50 dB   -16.18 dB      5:56 02-Another Man Done Gone
DR10      -0.50 dB   -12.19 dB      5:46 03-Cotton
DR10      -0.50 dB   -12.83 dB      5:41 04-Sugar Free
DR11      -0.50 dB   -13.63 dB      4:13 05-Bigger Thomas
DR14      -0.50 dB   -18.25 dB      4:48 06-Americana
DR10      -0.50 dB   -13.72 dB      5:44 07-Lightnin'
DR14      -3.88 dB   -21.79 dB      2:39 08-If You're Lonesome, Then You're Not Alone
DR12      -0.50 dB   -13.80 dB      3:27 09-Lillie Mae Jones
--------------------------------------------------------------------------------

Number of tracks:  9
Official DR value: DR12

Samplerate:        88200 Hz
Channels:          2
Bits per sample:   24
Bitrate:           2998 kbps
Codec:             FLAC
================================================================================
Приватный:
Нет (DHT включён)
Размер:
894.67 Мб (938,124,916 байт) » файлов: 12
Участники:
5 раздают, 0 качают (5 участников всего)
Внешние участники:
--- [ Обновить ]
Скорость:
0/c 8.96 Кб/c
No seeders - write personal message to M0p94ok. Any questions - support@pro-jazz.com.
Нет сидеров - пишите в личку M0p94ok. Есть вопросы - support@pro-jazz.com
00:17
169
Нет комментариев. Ваш будет первым!