Вы используете незарегистрированную версию компонента "Вкладки"!

Поиск

2020 Patchwork Jazz Orchestra - The Light That Shines {Spark} [24-44,1]

2020 Patchwork Jazz Orchestra - The Light That Shines {Spark} [24-44,1]
Стили:
Битрейт аудио:
lossless
Доп. инфо:

Формат записи/Источник записи: [TR24][OF]
Наличие водяных знаков: Нет
Год издания/переиздания диска: 2020
Жанр: Jazz Big Band
Издатель (лейбл): Spark Label
Продолжительность: 39:15 min
Наличие сканов в содержимом раздачи: 

Контейнер: FLAC (*.flac)
Тип рипа: tracks
Разрядность: 24/44,1
Формат: PCM
Количество каналов: 2.0

Источник (релизер): bandcamp.com

Лог проверки качества
foobar2000 1.4.2 / Замер динамического диапазона (DR) 1.1.1
Дата отчёта:  2020-07-01 00:27:53

--------------------------------------------------------------------------------
Анализ:   Patchwork Jazz Orchestra / The Light That Shines
--------------------------------------------------------------------------------

DR         Пики         RMS           Продолжительность трека
--------------------------------------------------------------------------------
DR9       -0.40 дБ   -11.67 дБ      9:36 01-New Ansonia
DR8       -0.40 дБ   -11.16 дБ     10:09 02-Endless Stars
DR9       -0.40 дБ   -11.89 дБ      3:09 03-If I Were A Bell
DR9       -0.40 дБ   -12.13 дБ      8:56 04-Genmaicha
DR8       -0.40 дБ   -11.54 дБ      7:26 05-The Light That Shines
--------------------------------------------------------------------------------

Количество треков: 5
Реальные значения DR: DR9

Частота:   44100 Гц
Каналов:   2
Разрядность:   24
Битрейт:   1485 кбит/с
Кодек:   FLAC
================================================================================
Any questions - support@pro-jazz.com. Есть вопросы - support@pro-jazz.com
13:20
237
Нет комментариев. Ваш будет первым!