Вы используете незарегистрированную версию компонента "Вкладки"!

Поиск

1956-1962 Ahmad Jamal Trio - Complete Argo Sessions Vol.8 (2018) {Crazy Warthog} [24-44,1]

1956-1962 Ahmad Jamal Trio - Complete Argo Sessions Vol.8 (2018) {Crazy Warthog} [24-44,1]
Стили:
Битрейт аудио:
lossless
Доп. инфо:

Формат записи/Источник записи: [TR24][OF]
Издание: Remastered
Год издания/переиздания диска: 2018
Издатель (лейбл): Crazy Warthog Media
Продолжительность: 00:51:37
Наличие сканов в содержимом раздачи: Нет

Контейнер: FLAC (*.flac)
Тип рипа: tracks
Разрядность: 24/44,1
Количество каналов: 2.0

Источник (релизер): Qobuz

Лог проверки качества
foobar2000 1.3.7 / Dynamic Range Meter 1.1.1
log date: 2019-07-02 05:05:58

--------------------------------------------------------------------------------
Analyzed: Ahmad Jamal / Coplete Ahmad Jamal Trio Argo Sessions Vol.8 1956-1962
--------------------------------------------------------------------------------

DR         Peak         RMS     Duration Track
--------------------------------------------------------------------------------
DR11      -0.45 dB   -16.37 dB      6:12 01-I'll Take Romance-My Funny Valentine
DR11       0.00 dB   -15.07 dB      5:15 02-Like Someone in Love
DR13      -0.79 dB   -16.77 dB      4:21 03-Falling in Love with Love
DR12       0.00 dB   -15.29 dB      4:36 04-The Best Thing for You
DR13       0.00 dB   -17.10 dB      6:14 05-April in Paris
DR14      -0.20 dB   -20.91 dB      4:13 06-Second Time Around
DR11       0.00 dB   -16.26 dB      5:09 07-We Live in Two Different Worlds
DR10       0.00 dB   -14.55 dB      7:05 08-Night Mist Blues
DR8        0.00 dB   -11.70 dB      4:33 09-Darn That Dream
DR13       0.00 dB   -17.26 dB      4:03 10-On Green Dolphin Street
--------------------------------------------------------------------------------

Number of tracks:  10
Official DR value: DR12

Samplerate:        44100 Hz
Channels:          2
Bits per sample:   24
Bitrate:           1455 kbps
Codec:             FLAC
================================================================================
Any questions - support@pro-jazz.com. Есть вопросы - support@pro-jazz.com
13:49
209
Нет комментариев. Ваш будет первым!