Вы используете незарегистрированную версию компонента "Вкладки"!

Поиск

2020 Parov Stelar - Voodoo Sonic (The Trilogy, Pt. 3) {Etage Noir} [24-44,1]

2020 Parov Stelar - Voodoo Sonic (The Trilogy, Pt. 3) {Etage Noir} [24-44,1]
Битрейт аудио:
lossless
Доп. инфо:

Формат записи/Источник записи: [TR24][OF]
Наличие водяных знаков: Нет
Год издания/переиздания диска: 2020
Издатель (лейбл): Etage Noir Recordings
Продолжительность: 00:28:33
Наличие сканов в содержимом раздачи: Нет

Контейнер: FLAC (*.flac)
Тип рипа: tracks
Разрядность: 24/44,1
Формат: Flac
Количество каналов: 2.0

Источник (релизер): qobuz

Лог проверки качества
foobar2000 1.3.17 / Замер динамического диапазона (DR) 1.1.1
Дата отчёта:  2020-09-12 19:35:57

--------------------------------------------------------------------------------
Анализ:   Parov Stelar / Voodoo Sonic
--------------------------------------------------------------------------------

DR         Пики         RMS           Продолжительность трека
--------------------------------------------------------------------------------
DR6       -0.28 дБ    -9.01 дБ      4:12 01-Black Marlin
DR5       -0.28 дБ    -7.61 дБ      2:49 02-Purple Moon
DR6       -0.40 дБ    -8.80 дБ      3:04 03-Tango Del Fuego
DR6       -0.30 дБ    -7.19 дБ      4:23 04-Pink Dragon
DR5       -0.28 дБ    -7.52 дБ      2:59 05-Silver Line
DR5       -0.30 дБ    -7.39 дБ      4:21 06-Red Cat
DR5       -0.28 дБ    -6.45 дБ      2:53 07-Crush & Crumble
DR6       -0.30 дБ    -8.83 дБ      3:59 08-The Voodoo Engine
--------------------------------------------------------------------------------

Количество треков: 8
Реальные значения DR: DR6

Частота:   44100 Гц
Каналов:   2
Разрядность:   24
Битрейт:   1459 кбит/с
Кодек:   FLAC
================================================================================
Any questions - support@pro-jazz.com. Есть вопросы - support@pro-jazz.com
19:52
228
Нет комментариев. Ваш будет первым!