Поиск

2020 Parov Stelar - Voodoo Sonic (The Trilogy, Pt. 2) {Etage Noir} [24-44,1]

2020 Parov Stelar - Voodoo Sonic (The Trilogy, Pt. 2) {Etage Noir} [24-44,1]
Битрейт аудио:
lossless

This album is available on our DC++ hub: dc.pro-jazz.com
Этот альбом доступен на нашем DC++ хабе: dc.pro-jazz.com

01. Brass Devil - (03:52)
02. Piano Boy - (07:00)
03. Don't You Forget (feat. Lilja Bloom, Anduze) - (03:21)
04. Fade to Red (feat. ESCHES) - (03:10)
05. Come Back Home - (05:10)

Лог проверки качества
foobar2000 1.3.17 / Замер динамического диапазона (DR) 1.1.1
Дата отчёта:  2020-09-05 21:57:57

--------------------------------------------------------------------------------
Анализ:   Parov Stelar / Voodoo Sonic (The Trilogy, Pt. 2)
--------------------------------------------------------------------------------

DR         Пики         RMS           Продолжительность трека
--------------------------------------------------------------------------------
DR6       -0.30 дБ    -7.90 дБ      3:52 01-Brass Devil
DR7       -0.20 дБ    -8.91 дБ      7:00 02-Piano Boy
DR5       -0.28 дБ    -7.80 дБ      3:22 03-Don't You Forget (feat. Lilja Bloom, Anduze)
DR7       -0.20 дБ   -10.45 дБ      3:11 04-Fade to Red (feat. Esches)
DR5       -0.20 дБ    -7.80 дБ      5:11 05-Come Back Home
--------------------------------------------------------------------------------

Количество треков: 5
Реальные значения DR: DR6

Частота:   44100 Гц
Каналов:   2
Разрядность:   24
Битрейт:   1556 кбит/с
Кодек:   FLAC
================================================================================
Приватный:
Да (DHT отключён)
Размер:
260.51 Мб (273,159,849 байт) » файлов: 7
Участники:
0 раздают, 0 качают (0 участников всего)
Внешние участники:
9 раздают, 3 качают (12 участников всего) [ Обновить ]
14:29
763
Нет комментариев. Ваш будет первым!