Поиск

2020 Camille Bertault - Le Tigre {Masterworks} [24-96]

2020 Camille Bertault - Le Tigre {Masterworks} [24-96]
Битрейт аудио:
lossless

This album is available on our DC++ hub: dc.pro-jazz.com
Этот альбом доступен на нашем DC++ хабе: dc.pro-jazz.com

01. Berceuse de la 54ème rue (version française) (2:55)
02. Le tigre (4:08)
03. Todolist (3:29)
04. There Is a Bird (4:13)
05. Voyage en Haïku (4:49)
06. Je suis un arbre (5:56)
07. Ma muse (3:40)
08. Dream Dream (4:03)
09. Je vieillis (2:55)
10. Tous ego (3:46)
11. Prélude (2:35)
12. A quoi bon (2:59)
13. Le tube (3:38)
14. Berceuse de la 54ème rue (version portugaise) (2:41)

Состав:
  • Camille Bertault, vocals
  • Michael Leonhart, trumpet, French horn, mellophonium, trombonium, additional drums (2, 3, 5, 13), synths and mellotron
  • Stéphane Guillaume, tenor sax, baritone sax, Bb clarinet, bass clarinet, flute and alto flute
  • Jacky Terrasson, piano, mellotron, Hammond B3 organ, Fender Rhodes, Op-1
  • Christophe Minck, acoustic and electric bass, moog synth, modular synths (11)
  • Diego Figueiredo, acoustic guitar (1, 11, 14)
  • Donald Kontomanou, Leo Sidran, drums
  • Minino Garaï, percussion
  • Léo Sidran, additional drums (2)
  • Loïk Dury, modular synths and manipulation (11)
Лог проверки качества
foobar2000 1.4.8 / Dynamic Range Meter 1.1.1
log date: 2020-09-12 10:54:44

--------------------------------------------------------------------------------
Analyzed: Camille Bertault / Le Tigre
--------------------------------------------------------------------------------

DR         Peak         RMS     Duration Track
--------------------------------------------------------------------------------
DR11      -2.50 dB   -16.54 dB      2:55 01-Berceuse de la 54ème rue (version française)
DR9       -0.20 dB   -11.04 dB      4:10 02-Le tigre
DR8       -0.20 dB    -9.30 dB      3:30 03-Todolist
DR12      -0.20 dB   -15.35 dB      4:13 04-There Is a Bird
DR9       -0.20 dB   -10.87 dB      4:51 05-Voyage en Haïku
DR10      -0.20 dB   -12.74 dB      5:58 06-Je suis un arbre
DR9       -0.20 dB   -10.66 dB      3:41 07-Ma muse
DR11      -0.20 dB   -13.16 dB      4:04 08-Dream Dream
DR12      -0.20 dB   -15.58 dB      2:55 09-Je vieillis
DR10      -0.20 dB   -12.45 dB      3:46 10-Tous ego
DR10      -0.75 dB   -14.42 dB      2:35 11-Prélude
DR8       -0.20 dB   -10.00 dB      3:01 12-A quoi bon
DR8       -0.20 dB    -9.81 dB      3:42 13-Le tube
DR12      -1.25 dB   -16.53 dB      2:39 14-Berceuse de la 54ème rue (version portugaise)
--------------------------------------------------------------------------------

Number of tracks:  14
Official DR value: DR10
Samplerate:        96000 Hz
Channels:          2
Bits per sample:   24
Bitrate:           2496 kbps
Codec:             FLAC
================================================================================
14:13
769
Нет комментариев. Ваш будет первым!