Вы используете незарегистрированную версию компонента "Вкладки"!

Поиск

2017 Yoel Diaz Cubarteto - Occasion {Disques Artic} [24-88,2]

2017 Yoel Diaz Cubarteto - Occasion {Disques Artic} [24-88,2]
Стили:
Место записи:
Montréal, Canada
Носитель:
WEB
Формат:
PCM
Тип рипа:
tracks+.cue
Контейнер:
FLAC (*.flac)
Количество каналов:
2.0
Разрядность/ЧД:
24/88,2
Битрейт аудио:
lossless
Время звучания:
00:36:14
Наличие сканов:
да
Страна-производитель диска (релиза):
Canada
Релизёр (источник):
M0p94ok
Лог проверки качества
foobar2000 1.3.16 / Dynamic Range Meter 1.1.1
log date: 2019-02-13 18:32:05

--------------------------------------------------------------------------------
Analyzed: Yoel Diaz, Cubarteto / Occasion
--------------------------------------------------------------------------------

DR         Peak         RMS     Duration Track
--------------------------------------------------------------------------------
DR11      -1.00 dB   -13.65 dB      6:01 01-Jazzeando A Lo Cubano
DR12      -1.00 dB   -15.86 dB      6:20 02-Flor Hacia El Viento
DR11      -1.00 dB   -13.29 dB      4:52 03-Son Para Piano No. 2
DR11      -1.00 dB   -13.76 dB      5:18 04-Bar Jazzons
DR11      -1.00 dB   -13.37 dB      4:27 05-Occasion
DR12      -1.00 dB   -14.56 dB      5:30 06-Chachacha 74
DR11      -1.30 dB   -17.06 dB      4:03 07-Ancla
--------------------------------------------------------------------------------

Number of tracks:  7
Official DR value: DR11

Samplerate:        88200 Hz
Channels:          2
Bits per sample:   24
Bitrate:           1998 kbps
Codec:             FLAC
================================================================================
Any questions - support@pro-jazz.com. Есть вопросы - support@pro-jazz.com
14:48
204
Нет комментариев. Ваш будет первым!