Поиск

2020 Nova - The Nova Collection Vol. 1 & Vol. 2 Bundle {Velvet Mind} [24-48]

2020 Nova - The Nova Collection Vol. 1 & Vol. 2 Bundle {Velvet Mind} [24-48]
Битрейт аудио:
lossless

Треклист:

01 Insensatez
02 Samba de Uma Nota So
03 Desafinado
04 Chega de Saudade
05 Águas de Março
06 Mas Que Nada
07 Água De Beber
08 Até Você Voltar
09 Meditação
10 Canto de Ossanha
11 Corcovado
12 Garota de Ipanema
13 Flor de Lis
14 Artigo de Luxo
15 A Felicidade
16 Wave
17 Dindi
18 Viver Mais Uma Vez
19 Berimbau
20 Quando Outono Vem (When Autumn Falls)

Доп. инфо:

Носитель: WEB 
Год издания: 2020
Издатель (лейбл): Velvet Mind Group
Источник: https://www.novamusicla.com/store
Наличие сканов в содержимом раздачи: нет

Контейнер: FLAC (*.flac)
Тип рипа: tracks
Разрядность: 24/48
Формат: PCM
Количество каналов: 2.0

Лог проверки качества
foobar2000 1.3.17 / Замер динамического диапазона (DR) 1.1.1
Дата отчёта:  2020-08-05 15:53:15
--------------------------------------------------------------------------------
Анализ:   NOVA / The NOVA Collection Vol. 1 & Vol. 2 - BUNDLE (Special Edition)
--------------------------------------------------------------------------------

DR         Пики         RMS           Продолжительность трека
--------------------------------------------------------------------------------
DR14      -0.83 дБ   -16.44 дБ      3:55 01-01 - NOVA - 1 - NOVA - Insensatez (How Insensitive) (Remastered 2020 Version)
DR14      -0.48 дБ   -15.57 дБ      2:01 02-02 - NOVA - Samba de Uma Nota So (One Note Samba) (Remastered 2020 Version)
DR12      -0.04 дБ   -14.63 дБ      8:03 03-03 - NOVA - 3 - NOVA - Desafinado  (Remastered 2020 Version)
DR12      -0.03 дБ   -13.80 дБ      5:18 04-04 - NOVA - 4 - NOVA - Chega de Saudade (No More Blues)  (Remastered 2020 Version)
DR13      -0.03 дБ   -14.23 дБ      3:50 05-05 - NOVA - 5 - NOVA - Águas de Março (Waters Of March)  (Remastered 2020 Version)
DR8       -0.03 дБ   -10.84 дБ      4:09 06-06 - NOVA - 6 - NOVA - Mas Que Nada  (Remastered 2020 Version)
DR12      -0.02 дБ   -14.48 дБ      3:59 07-07 - NOVA - 7 - NOVA - Água De Beber  (Remastered 2020 Version)
DR13      -0.03 дБ   -15.61 дБ      4:32 08-08 - NOVA - 8 - NOVA - Até Você Voltar  (Remastered 2020 Version)
DR12      -0.03 дБ   -14.39 дБ      4:12 09-09 - NOVA - 9 - NOVA - Meditação (Meditation)  (Remastered 2020 Version)
DR10      -0.16 дБ   -14.13 дБ      5:10 10-10 - NOVA - 10 - NOVA - Canto de Ossanha  (Remastered 2020 Version)
DR13      -0.03 дБ   -15.38 дБ      3:54 11-11 - NOVA - 11 - NOVA - Corcovado (Quiet Nights of Quiet Stars)  (Remastered 2020 Version)
DR12      -0.02 дБ   -15.56 дБ      4:57 12-12 - NOVA - 12 - NOVA - Garota de Ipanema (The Girl From Ipanema)  (Remastered 2020 Version)
DR9       -0.02 дБ   -12.05 дБ      5:03 13-13 - NOVA - 13 - NOVA - Flor de Lis  (Remastered 2020 Version)
DR11       0.00 дБ   -13.17 дБ      4:48 14-14 - NOVA - 14 - NOVA - Artigo de Luxo  (Remastered 2020 Version)
DR13      -0.03 дБ   -14.22 дБ      5:13 15-15 - NOVA - 15 - NOVA - A Felicidade  (Remastered 2020 Version)
DR13      -0.01 дБ   -15.23 дБ      4:46 16-16 - NOVA - 16 - NOVA - Wave  (Remastered 2020 Version)
DR12      -0.03 дБ   -15.12 дБ      5:16 17-17 - NOVA - 17 - NOVA - Dindi  (Remastered 2020 Version)
DR12      -0.02 дБ   -14.43 дБ      4:34 18-18 - NOVA - 18 - NOVA - Viver Mais Uma Vez  (Remastered 2020 Version)
DR10      -0.02 дБ   -13.07 дБ      2:52 19-19 - NOVA - 19 - NOVA - Berimbau  (Remastered 2020 Version)
DR11      -2.07 дБ   -15.11 дБ      3:05 20-20 - NOVA - 20 - NOVA - Quando Outono Vem (When Autumn Falls)
--------------------------------------------------------------------------------

Количество треков: 20
Реальные значения DR: DR12

Частота:   48000 Гц
Каналов:   2
Разрядность:   24
Битрейт:   1604 кбит/с
Кодек:   FLAC
================================================================================
Приватный:
Нет (DHT включён)
Размер:
1.10 Гб (1,180,628,606 байт) » файлов: 21
Участники:
0 раздают, 0 качают (0 участников всего)
Внешние участники:
20 раздают, 7 качают (27 участников всего) [ Обновить ]
No seeders - write a personal message to user M0p94ok. Нет сидеров - пишите личное сообщение пользователю M0p94ok.
12:30
21
Нет комментариев. Ваш будет первым!