Поиск

2014 Hildegunn Øiseth - Valencia {Losen} [24-48]

2014 Hildegunn Øiseth - Valencia {Losen} [24-48]
Битрейт аудио:
lossless
Треклист:

01 Sacred 03:48
02 Chasing My Own Tail 06:45
03 Sårt 05:39
04 A Day in Valencia 06:16
05 Roxy 06:18
06 Vinternatt 06:12
07 Nattjoik 05:17

Доп. инфо:

Формат записи/Источник записи: [TR24][OF]
Наличие водяных знаков: Нет
Год издания/переиздания диска: 2014
Издатель (лейбл): Losen Records
Продолжительность: 00:40:18
Наличие сканов в содержимом раздачи: Только обложка альбома
Источник (релизер): highresaudio

Контейнер: FLAC (*.flac)
Тип рипа: tracks
Разрядность: 24/48
Формат: PCM
Количество каналов: 2.0

Доп. информация: http://hildegunn.com/

Лог проверки качества
foobar2000 1.1.15 / Dynamic Range Meter 1.1.1
log date: 2020-08-06 09:37:42

--------------------------------------------------------------------------------
Analyzed: Hildegunn Øiseth / Valencia
--------------------------------------------------------------------------------

DR         Peak         RMS     Duration Track
--------------------------------------------------------------------------------
DR14      -2.45 dB   -19.46 dB      3:48 01-Sacred
DR10      -0.10 dB   -12.62 dB      6:45 02-Chasing My Own Tail
DR11      -0.10 dB   -14.10 dB      5:40 03-Sårt
DR9       -0.10 dB   -12.05 dB      6:16 04-A Day in Valencia
DR10      -0.10 dB   -12.44 dB      6:19 05-Roxy
DR11      -0.10 dB   -14.12 dB      6:13 06-Vinternatt
DR13      -0.10 dB   -15.41 dB      5:18 07-Nattjoik
--------------------------------------------------------------------------------

Number of tracks:  7
Official DR value: DR11

Samplerate:        48000 Hz
Channels:          2
Bits per sample:   24
Bitrate:           1358 kbps
Codec:             FLAC
================================================================================
Приватный:
Нет (DHT включён)
Размер:
418.75 Мб (439,089,378 байт) » файлов: 12
Участники:
0 раздают, 0 качают (0 участников всего)
Внешние участники:
14 раздают, 5 качают (19 участников всего) [ Обновить ]
No seeders - write a personal message to user M0p94ok. Нет сидеров - пишите личное сообщение пользователю M0p94ok.
22:39
20
Нет комментариев. Ваш будет первым!