Вы используете незарегистрированную версию компонента "Вкладки"!

Поиск

2019 Greg Murphy Trio - Bright Idea {Whaling City Sound WCS 111} [24-96]

2019 Greg Murphy Trio - Bright Idea {Whaling City Sound WCS 111} [24-96]
Стили:
Издатель (лейбл):
Номер по каталогу:
WCS 111
Носитель:
WEB
Формат:
PCM
Тип рипа:
tracks+.cue
Контейнер:
FLAC (*.flac)
Количество каналов:
2.0
Разрядность/ЧД:
24/96
Битрейт аудио:
lossless
Время звучания:
01:15:07
Наличие сканов:
web
Страна-производитель диска (релиза):
USA
Релизёр (источник):
M0p94ok - https://www.prostudiomasters.com/album/page/28937
Лог проверки качества
foobar2000 1.5.5 / Dynamic Range Meter 1.1.1
log date: 2020-09-16 13:03:14

--------------------------------------------------------------------------------
Analyzed: Greg Murphy Trio / Bright Idea
--------------------------------------------------------------------------------

DR         Peak         RMS     Duration Track
--------------------------------------------------------------------------------
DR14      -2.00 dB   -17.59 dB      7:24 01-The New Moon Softly, as in a Morning Sunrise
DR14      -2.05 dB   -16.49 dB      3:47 02-Despicable Me 2 Happy Happy (From Despicable Me 2)
DR12      -2.05 dB   -15.80 dB      7:20 03-Bright Idea
DR14      -2.05 dB   -19.17 dB      6:28 04-Earthlings
DR13      -2.05 dB   -17.47 dB      2:43 05-24K Magic
DR15      -2.05 dB   -21.17 dB      4:58 06-Street Cats
DR14      -2.06 dB   -17.71 dB      5:08 07-Finer Things
DR14      -2.00 dB   -19.66 dB      7:08 08-For My Mom
DR15      -2.05 dB   -20.23 dB      4:40 09-Straight No Blues
DR13      -2.00 dB   -17.97 dB      8:38 10-Moving Violation
DR15      -2.05 dB   -19.63 dB      6:10 11-Well, Of All Things Well, of All Things
DR13      -2.00 dB   -17.51 dB      6:36 12-Untitled Original 11383
DR13      -2.00 dB   -17.10 dB      4:14 13-Juneteenth Notes
--------------------------------------------------------------------------------

Number of tracks:  13
Official DR value: DR14

Samplerate:        96000 Hz
Channels:          2
Bits per sample:   24
Bitrate:           2723 kbps
Codec:             FLAC
================================================================================
Any questions - support@pro-jazz.com. Есть вопросы - support@pro-jazz.com
17:03
251
Нет комментариев. Ваш будет первым!