Поиск

2020 Mulatu Astatke & Black Jesus Experience - To Know Without Knowing {Agogo} [24-44,1]

2020 Mulatu Astatke & Black Jesus Experience - To Know Without Knowing {Agogo} [24-44,1]
Битрейт аудио:
lossless

This album is available on our DC++ hub: dc.pro-jazz.com
Этот альбом доступен на нашем DC++ хабе: dc.pro-jazz.com

1. Mulatu 06:20
2. Ambassa Lemdi 05:51
3. Kulun Mankwaleshi 07:47
4. Living On Stolen Land 10:25
5. To Know Without Knowing 07:35
6. Lijay 05:24
7. Blue Light 03:35
8. Mascaram Setaba 05:53
9. A Chance To Give 05:45

Состав:
  • Mulatu Astatke: vibraphone, wurlitzer electric piano, congas.
  • Bob Sedergreen: grand piano.
  • Enushu Taye: vocal.
  • Liam ‘Monk’ Monkhouse: MC.
  • Elf Transporter: MC.
  • Vida Sunshyne: vocal.
  • Peter Harper: tenor saxophone.
  • Ian Dixon: flugelhorn, trumpet.
  • Dominique Chaseling: flute.
  • Zac Lister: guitar, voc chorus.
  • Robbie Belchamber: guitar.
  • Richard Rose: bass.
  • James Davies: drumkit.
  • Haftu Reda: masinko.
  • Olugbade Okunade: congas, shekere.
  • Kahan Harper: shakers, woodblock.
  • Mearge Abate, Addisalem Taye, Corry Harper: vocal chorus.

Recorded by: Jimi Wyatt at Ginger Studios, Melbourne, Australia.
Myles Mumford at Rolling Stock Recording Rooms, Melbourne, Australia.
Zac Lister at BJX Mobile Studio.
Mixed by Jono Podmore aka KUMO, London UK.
Mastered by Kevin Metcalfe at Soundmasters, London, UK.
Original Woodcut by John Ryrie
Cover design by Ian Dixon
released July 3, 2020

Лог проверки качества
foobar2000 1.3.7 / Dynamic Range Meter 1.1.1
log date: 2020-07-16 10:04:50

--------------------------------------------------------------------------------
Analyzed: Mulatu Astatke & Black Jesus Experience / To Know Without Knowing
--------------------------------------------------------------------------------

DR         Peak         RMS     Duration Track
--------------------------------------------------------------------------------
DR9       -0.14 dB    -9.82 dB      6:20 01-Mulatu
DR9       -0.14 dB   -10.37 dB      5:52 02-Ambassa Lemdi
DR8       -0.14 dB    -8.72 dB      7:47 03-Kulun Mankwaleshi
DR7       -0.14 dB    -8.71 dB     10:26 04-Living On Stolen Land
DR9       -0.15 dB   -10.82 dB      7:35 05-To Know Without Knowing
DR9       -0.14 dB   -10.13 dB      5:25 06-Lijay
DR9       -0.14 dB   -10.55 dB      3:35 07-Blue Light
DR9       -0.14 dB    -9.85 dB      5:53 08-Mascaram Setaba
DR8       -0.14 dB    -8.60 dB      5:46 09-A Chance To Give
--------------------------------------------------------------------------------

Number of tracks:  9
Official DR value: DR8

Samplerate:        44100 Hz
Channels:          2
Bits per sample:   24
Bitrate:           1539 kbps
Codec:             FLAC
================================================================================
11:35
911
Нет комментариев. Ваш будет первым!