Вы используете незарегистрированную версию компонента "Вкладки"!

Поиск

2019 Hiromi - Spectrum {Telarc} [DSD64]

2019 Hiromi - Spectrum {Telarc} [DSD64]
Место записи:
Skywalker Sound, A Lucasfilm Ltd Company, Marin Country, California
Издатель (лейбл):
Номер по каталогу:
UCGO-9054
Битрейт аудио:
lossless
Доп. инфо:

Формат записи/Источник записи: [SACD-R][OF]
Наличие водяных знаков: Нет
Год издания/переиздания диска: 2019
Продолжительность: 01:13:16
Наличие сканов в содержимом раздачи: Да (сканы)
Источник (релизер): CDJapan

Лог проверки качества
foobar2000 1.3.15 / Dynamic Range Meter 1.1.1
log date: 2020-08-03 19:35:29

--------------------------------------------------------------------------------
Analyzed: Hiromi / Spectrum
--------------------------------------------------------------------------------

DR         Peak         RMS     Duration Track
--------------------------------------------------------------------------------
DR10      -6.19 dB   -18.75 dB      8:07 01-Kaleidoscope
DR11      -6.27 dB   -22.45 dB      7:34 02-Whiteout
DR11      -6.27 dB   -20.62 dB      5:40 03-Yellow Wurlitzer Blues
DR11      -6.25 dB   -19.87 dB      5:04 04-Spectrum
DR12      -6.53 dB   -24.10 dB      5:22 05-Blackbird
DR11      -6.04 dB   -21.04 dB      6:08 06-Mr. C.C.
DR10      -6.15 dB   -20.15 dB      5:59 07-Once In A Blue Moon
DR11      -6.08 dB   -21.36 dB     22:46 08-Gershwin: Rhapsody In Various Shades Of Blue
DR11      -6.16 dB   -21.09 dB      6:37 09-Sepia Effect
--------------------------------------------------------------------------------

Number of tracks:  9
Official DR value: DR11

Samplerate:        2822400 Hz / PCM Samplerate: 176400 Hz
Channels:          2
Bits per sample:   1
Bitrate:           5645 kbps
Codec:             DSD64
================================================================================
Any questions - support@pro-jazz.com. Есть вопросы - support@pro-jazz.com
13:06
222
Нет комментариев. Ваш будет первым!