Вы используете незарегистрированную версию компонента "Вкладки"!

Поиск

2020 Chris ‘Big Dog’ Davis - Focus {Shanachie} [24-44,1]

2020 Chris ‘Big Dog’ Davis - Focus {Shanachie} [24-44,1]
Издатель (лейбл):
Битрейт аудио:
lossless
Доп. инфо:

Формат записи/Источник записи: [TR24][OF]
Наличие водяных знаков: Нет
Год издания/переиздания диска: 2020
Продолжительность: 00:39:51
Наличие сканов в содержимом раздачи: Буклет PDF

Контейнер: FLAC (*.flac)
Тип рипа: tracks
Разрядность: 24/44,1
Формат: PCM
Количество каналов: 2.0

Источник (релизер): https://www.qobuz.com/gb-en/album/focus-chris-big-dog-davis/r6ihd6jbehopb

Лог проверки качества
foobar2000 1.3.16 / Dynamic Range Meter 1.1.1
log date: 2020-06-28 22:14:19

--------------------------------------------------------------------------------
Analyzed: Chris 'Big Dog' Davis / Focus
--------------------------------------------------------------------------------

DR         Peak         RMS     Duration Track
--------------------------------------------------------------------------------
DR10      -0.70 dB   -12.07 dB      4:06 01-Whatcha Gonna Do For Me
DR8       -0.70 dB   -10.73 dB      4:01 02-Focus┬а
DR11      -0.70 dB   -13.25 dB      3:59 03-One Day At A Time┬а
DR9       -0.70 dB   -11.81 dB      3:37 04-You Are Loved
DR8       -0.70 dB   -10.90 dB      2:25 05-Silver Street┬а
DR8       -0.70 dB   -11.60 dB      3:26 06-It's All Love
DR8       -0.70 dB   -10.62 dB      4:22 07-You Just Smile┬а
DR8       -0.70 dB   -11.19 dB      3:23 08-Natural High
DR7       -0.70 dB    -9.10 dB      4:09 09-Fall Back
DR7       -0.70 dB   -10.91 dB      2:21 10-Just When You Thought You Had Enough┬а
DR7       -0.52 dB    -8.93 dB      4:06 11-Blue Light Special
--------------------------------------------------------------------------------

Number of tracks:  11
Official DR value: DR8

Samplerate:        44100 Hz
Channels:          2
Bits per sample:   24
Bitrate:           1532 kbps
Codec:             FLAC
================================================================================
Any questions - support@pro-jazz.com. Есть вопросы - support@pro-jazz.com
13:46
247
Нет комментариев. Ваш будет первым!