Вы используете незарегистрированную версию компонента "Вкладки"!

Поиск

1968 Kenny Clarke Francy Boland Big Band - All Smiles (2017) {MPS} [24-192]

1968 Kenny Clarke Francy Boland Big Band - All Smiles (2017) {MPS} [24-192]
Стили:
Битрейт аудио:
lossless
Доп. инфо:

Формат записи/Источник записи: [TR24][OF]
Издание: Remastered
Год издания/переиздания диска: 1968/2017
Издатель (лейбл): MPS
Продолжительность: 00:36:52
Наличие сканов в содержимом раздачи: Нет

Контейнер: FLAC (*.flac)
Тип рипа: tracks
Разрядность: 24/192
Количество каналов: 2.0

Источник (релизер): Qobuz

Лог проверки качества
foobar2000 1.4.3 / Dynamic Range Meter 1.1.1
log date: 2020-07-20 01:33:33

--------------------------------------------------------------------------------
Analyzed: The Kenny Clarke Francy Boland Big Band / All Smiles
--------------------------------------------------------------------------------

DR         Peak         RMS     Duration Track
--------------------------------------------------------------------------------
DR12      -2.03 dB   -17.02 dB      3:28 01-Let's Face the Music and Dance
DR12      -2.35 dB   -17.72 dB      3:31 02-I'm All Smiles
DR13      -0.50 dB   -16.30 dB      3:08 03-You Stepped out of a Dream
DR11      -3.05 dB   -18.01 dB      3:34 04-I'm Glad There Is You
DR12      -1.37 dB   -16.14 dB      4:50 05-Get out of Town
DR12      -1.79 dB   -17.02 dB      3:43 06-By Strauss
DR13      -0.78 dB   -16.37 dB      4:21 07-When Your Lover Has Gone
DR11      -1.97 dB   -16.98 dB      4:29 08-Gloria
DR13      -1.58 dB   -16.84 dB      3:40 09-Sweet and Lovely
DR12      -1.91 dB   -16.66 dB      2:08 10-High School Cadets
--------------------------------------------------------------------------------

Number of tracks:  10
Official DR value: DR12

Samplerate:        192000 Hz
Channels:          2
Bits per sample:   24
Bitrate:           5394 kbps
Codec:             FLAC
================================================================================
Any questions - support@pro-jazz.com. Есть вопросы - support@pro-jazz.com
14:09
230
Нет комментариев. Ваш будет первым!