Поиск

2018 Mikael Godée, Eve Beuvens Quartet - Looking Forward {Igloo IGL296} [24-88,2]

2018 Mikael Godée, Eve Beuvens Quartet - Looking Forward {Igloo IGL296} [24-88,2]
Стили:
Дата записи диска:
25-27 февраля 2018
Место записи:
Studio Igloo, Brussels, Belgium
Номер по каталогу:
Igloo IGL296
Носитель:
WEB
Формат:
PCM
Тип рипа:
tracks
Контейнер:
FLAC (*.flac)
Количество каналов:
2.0
Разрядность/ЧД:
24/88,2
Битрейт аудио:
lossless
Формат записи/Источник записи:
[TR24][OF]
Время звучания:
00:51:54
Наличие сканов:
только обложка
Наличие водяных знаков:
нет
Страна-производитель диска (релиза):
Belgium
Релизёр (источник):
M0p94ok

Треклист:

01    Aaron    6:44
02    My T.T.T.    5:53
03    Lacy    6:07
04    Summer 2017    4:03
05    Tycho    5:15
06    Did You Find Your Happiness?    3:51
07    The Thing I Wish To Say Is This    3:56
08    Nothing To Declare    3:31
09    Le Bruly    6:38
10    How Do You Do?    6:12

Лог проверки качества
foobar2000 1.5.5 / Dynamic Range Meter 1.1.1
log date: 2020-09-15 12:07:36

--------------------------------------------------------------------------------
Analyzed: Mikael Godée, Eve Beuvens Quartet / Looking Forward
--------------------------------------------------------------------------------

DR         Peak         RMS     Duration Track
--------------------------------------------------------------------------------
DR10      -0.14 dB   -12.87 dB      6:42 01-Aaron (feat. Magnus Bergström, Johan Birgenius)
DR10      -0.05 dB   -12.31 dB      5:51 02-My T.T.T (feat. Magnus Bergström, Johan Birgenius)
DR10      -1.67 dB   -15.44 dB      6:05 03-Lacy (feat. Magnus Bergström, Johan Birgenius)
DR9       -0.05 dB   -12.19 dB      4:02 04-Summer 2017 (feat. Magnus Bergström, Johan Birgenius)
DR9       -0.05 dB   -10.92 dB      5:14 05-Tycho (feat. Magnus Bergström, Johan Birgenius)
DR10      -0.94 dB   -14.82 dB      3:51 06-Did You Find Your Happiness? (feat. Magnus Bergström, Johan Birgenius)
DR9       -0.96 dB   -12.99 dB      3:53 07-The Thing I Wish to Say Is This (feat. Magnus Bergström, Johan Birgenius)
DR9       -1.32 dB   -14.07 dB      3:30 08-Nothing to Declare (feat. Magnus Bergström, Johan Birgenius)
DR10      -0.05 dB   -13.02 dB      6:37 09-Le Bruly (feat. Magnus Bergström, Johan Birgenius)
DR10      -0.05 dB   -12.16 dB      6:12 10-How Do You Do? (feat. Magnus Bergström, Johan Birgenius)
--------------------------------------------------------------------------------

Number of tracks:  10
Official DR value: DR10

Samplerate:        88200 Hz
Channels:          2
Bits per sample:   24
Bitrate:           1649 kbps
Codec:             FLAC
================================================================================
Приватный:
Нет (DHT включён)
Размер:
530.46 Мб (556,230,741 байт) » файлов: 12
Участники:
1 раздают, 1 качают (2 участников всего)
Внешние участники:
--- [ Обновить ]
No seeders - write a personal message to user M0p94ok. Нет сидеров - пишите личное сообщение пользователю M0p94ok.
12:19
18
Нет комментариев. Ваш будет первым!