Поиск

1959-1960 Lambert, Hendricks, And Ross - The HOTTEST Group....Anywhere! {RevOla} [24-44,1]

1959-1960 Lambert, Hendricks, And Ross - The HOTTEST Group....Anywhere! {RevOla} [24-44,1]
Стили:
Битрейт аудио:
lossless
Треклист:

01 - Charleston Alley 03:21
02 - Moanin' 02:37
03 - Twisted 02:19
04 - Bijou 03:19
05 - Cloudburst 02:18
06 - Centerpiece 02:29
07 - Gimme That Wine 03:00
08 - Sermonette 03:50
09 - Summertime 01:46
10 - Everybody's Boppin' 04:13
11 - Cottontail 02:58
12 - All Too Soon 03:29
13 - Happy Anatomy 01:20
14 - Rocks In My Bed 03:11
15 - Main Stem 02:56
16 - I Don't Know What Kind Of Blues I've Got 03:31
17 - Things Ain't What They Used To Be 02:50
18 - Midnight Indigo 02:35
19 - What Am I Here For 03:01
20 - In A Mellow Tone 03:31
21 - Caravan 02:34

Доп. инфо:

Формат записи/Источник записи: [TR24][OF]
Издание: Remastered
Год издания/переиздания диска: 1959-1960/2019
Издатель (лейбл): RevOla
Продолжительность: 01:01:08
Наличие сканов в содержимом раздачи: Нет

Контейнер: FLAC (*.flac)
Тип рипа: tracks
Разрядность: 24/44,1
Количество каналов: 2.0

Источник (релизер): Qobuz

Лог проверки качества
foobar2000 1.3.16 / Dynamic Range Meter 1.1.1
log date: 2019-01-15 00:25:01

--------------------------------------------------------------------------------
Analyzed: Lambert, Hendricks, And Ross / The HOTTEST Group....Anywhere! (Remastered)
--------------------------------------------------------------------------------

DR         Peak         RMS     Duration Track
--------------------------------------------------------------------------------
DR12      -1.31 dB   -15.41 dB      3:22 01-Charleston Alley (Remastered)
DR13      -1.32 dB   -16.59 dB      2:37 02-Moanin' (Remastered)
DR13      -1.84 dB   -15.94 dB      2:20 03-Twisted (Remastered)
DR13      -1.20 dB   -17.34 dB      3:20 04-Bijou (Remastered)
DR13      -0.32 dB   -16.17 dB      2:19 05-Cloudburst (Remastered)
DR13      -0.45 dB   -16.61 dB      2:29 06-Centerpiece (Remastered)
DR12      -1.98 dB   -17.18 dB      3:00 07-Gimme That Wine (Remastered)
DR14      -0.91 dB   -17.35 dB      3:50 08-Sermonette (Remastered)
DR11      -2.20 dB   -15.37 dB      1:46 09-Summertime (Remastered)
DR11      -1.55 dB   -15.15 dB      4:14 10-Everybody's Boppin' (Remastered)
DR12      -0.72 dB   -15.09 dB      2:58 11-Cottontail (Remastered)
DR11      -1.02 dB   -15.39 dB      3:30 12-All Too Soon (Remastered)
DR12      -0.57 dB   -15.59 dB      1:21 13-Happy Anatomy (Remastered)
DR12      -1.24 dB   -15.89 dB      3:12 14-Rocks In My Bed (Remastered)
DR12      -0.99 dB   -15.88 dB      2:56 15-Main Stem (Remastered)
DR11      -1.50 dB   -15.28 dB      3:32 16-I Don't Know What Kind Of Blues I've Got (Remastered)
DR12      -0.82 dB   -15.51 dB      2:51 17-Things Ain't What They Used To Be (Remastered)
DR12      -3.44 dB   -18.89 dB      2:36 18-Midnight Indigo (Remastered)
DR11      -0.27 dB   -15.29 dB      3:01 19-What Am I Here For (Remastered)
DR13      -1.19 dB   -17.24 dB      3:32 20-In A Mellow Tone (Remastered)
DR12      -0.23 dB   -14.91 dB      2:34 21-Caravan (Remastered)
--------------------------------------------------------------------------------

Number of tracks:  21
Official DR value: DR12

Samplerate:        44100 Hz
Channels:          2
Bits per sample:   24
Bitrate:           1538 kbps
Codec:             FLAC
================================================================================
Приватный:
Нет (DHT включён)
Размер:
693.42 Мб (727,103,188 байт) » файлов: 26
Участники:
0 раздают, 0 качают (0 участников всего)
Внешние участники:
10 раздают, 3 качают (13 участников всего) [ Обновить ]
No seeders - write a personal message to user M0p94ok. Нет сидеров - пишите личное сообщение пользователю M0p94ok.
10:23
16
Нет комментариев. Ваш будет первым!