Поиск

2019 Anne Paceo - Bright Shadows {Laborie Jazz LJ46} [24-88,2]

2019 Anne Paceo - Bright Shadows {Laborie Jazz LJ46} [24-88,2]
Дата издания диска:
26 января 2019
Номер по каталогу:
LJ46
Носитель:
WEB
Формат:
PCM
Тип рипа:
tracks
Контейнер:
FLAC (*.flac)
Количество каналов:
2.0
Разрядность/ЧД:
24/88,2
Битрейт аудио:
lossless
Формат записи/Источник записи:
[TR24][OF]
Время звучания:
00:42:01
Наличие сканов:
только обложка
Наличие водяных знаков:
нет
Страна-производитель диска (релиза):
France
Релизёр (источник):
M0p94ok

Треклист:

1. Tomorrow (4:54)
2. Bright shadows (5:13)
3. Hope is a swan (4:02)
4. Nehanda (4:15)
5. Calle silencio (5:00)
6. The shell (5:09)
7. Stranger (4:54)
8. Jasmine flower (4:26)
9. Contemplation (4:04)

Лог проверки качества
foobar2000 1.3.16 / Dynamic Range Meter 1.1.1
log date: 2019-01-25 11:28:48

--------------------------------------------------------------------------------
Analyzed: Anne Paceo / Bright Shadows
--------------------------------------------------------------------------------

DR         Peak         RMS     Duration Track
--------------------------------------------------------------------------------
DR7       -0.01 dB    -8.65 dB      4:55 01-Tomorrow
DR6       -0.01 dB    -7.49 dB      5:14 02-Bright Shadows
DR10      -0.01 dB   -11.71 dB      4:03 03-Hope Is a Swan
DR7       -0.01 dB    -8.71 dB      4:16 04-Nehanda
DR8       -0.01 dB   -10.51 dB      5:01 05-Calle Silencio
DR8       -0.01 dB    -9.03 dB      5:10 06-The Shell
DR8       -0.01 dB   -10.13 dB      4:54 07-Stranger
DR9       -0.01 dB   -10.93 dB      4:26 08-Jasmine Flower
DR11      -0.01 dB   -14.47 dB      4:04 09-Contemplation
--------------------------------------------------------------------------------

Number of tracks:  9
Official DR value: DR8

Samplerate:        88200 Hz
Channels:          2
Bits per sample:   24
Bitrate:           2461 kbps
Codec:             FLAC
================================================================================
Приватный:
Нет (DHT включён)
Размер:
781.41 Мб (819,362,962 байт) » файлов: 11
Участники:
1 раздают, 0 качают (1 участников всего)
Внешние участники:
--- [ Обновить ]
No seeders - write a personal message to user M0p94ok. Нет сидеров - пишите личное сообщение пользователю M0p94ok.
23:04
16
Нет комментариев. Ваш будет первым!