Поиск

2020 Charles Tolliver - Connect {Gearbox} [24-96]

2020 Charles Tolliver - Connect {Gearbox} [24-96]
Битрейт аудио:
lossless
Треклист:

01 - Blue Soul 09:38
02 - Emperor March 13:32
03 - Copasetic 06:06
04 - Suspicion 09:58
05 - Charles Tolliver - Blue Soul (Edit) 06:06

Доп. инфо:

Формат записи/Источник записи: [TR24][OF]
Год издания/переиздания диска: 2020
Издатель (лейбл): Gearbox Records
Продолжительность: 00:45:20
Наличие сканов в содержимом раздачи: Нет

Контейнер: FLAC (*.flac)
Тип рипа: tracks
Разрядность: 24/96
Количество каналов: 2.0

Источник (релизер): HIGHRESAUDIO

Лог проверки качества
foobar2000 1.4.3 / Dynamic Range Meter 1.1.1
log date: 2020-07-29 15:57:51

--------------------------------------------------------------------------------
Analyzed: Charles Tolliver / Connect
--------------------------------------------------------------------------------

DR         Peak         RMS     Duration Track
--------------------------------------------------------------------------------
DR9       -0.75 dB   -11.77 dB      9:38 01-Blue Soul
DR11      -0.75 dB   -13.79 dB     13:32 02-Emperor March
DR10      -0.75 dB   -12.93 dB      6:07 03-Copasetic
DR9       -0.75 dB   -11.41 dB      9:59 04-Suspicion
DR9       -0.16 dB   -11.14 dB      6:07 05-Charles Tolliver - Blue Soul (Edit)
--------------------------------------------------------------------------------

Number of tracks:  5
Official DR value: DR10

Samplerate:        96000 Hz
Channels:          2
Bits per sample:   24
Bitrate:           2917 kbps
Codec:             FLAC
================================================================================
Приватный:
Нет (DHT включён)
Размер:
952.84 Мб (999,122,432 байт) » файлов: 10
Участники:
0 раздают, 0 качают (0 участников всего)
Внешние участники:
17 раздают, 5 качают (22 участников всего) [ Обновить ]
No seeders - write a personal message to user M0p94ok. Нет сидеров - пишите личное сообщение пользователю M0p94ok.
11:01
18
Нет комментариев. Ваш будет первым!