Поиск

1958 Abbe Lane & Tito Puente Orchestra - Be Mine Tonight (2018 Remastered) {Rarity Music} [24-44,1]

1958 Abbe Lane & Tito Puente Orchestra - Be Mine Tonight (2018 Remastered) {Rarity Music} [24-44,1]
Издатель (лейбл):
Номер по каталогу:
LPM 1554
Носитель:
WEB
Формат:
PCM
Тип рипа:
tracks
Контейнер:
FLAC (*.flac)
Количество каналов:
2.0
Разрядность/ЧД:
24/44,1
Битрейт аудио:
lossless
Формат записи/Источник записи:
[TR24][OF]
Время звучания:
00:33:51
Наличие сканов:
только обложка
Наличие водяных знаков:
нет
Страна-производитель диска (релиза):
USA
Релизёр (источник):
M0p94ok
Треклист:

01. Pan, Amore Y Cha Cha Cha  02:17
02. Take It Easy  03:22
03. Noche de Ronda  03:58
04. Toomarvellous for Words  02:25
05. Nightingale  02:31
06. Oye Me Mama  02:19
07. Whatever Lola Wants  02:29
08. Arrivederci Roma  03:15
09. Green Eyes  02:47
10. Anna  02:29
11. The River Seine  02:49
12. Babalu  02:29

Лог проверки качества
foobar2000 1.5.5 / Dynamic Range Meter 1.1.1
log date: 2020-09-14 10:27:05

--------------------------------------------------------------------------------
Analyzed: Abbe Lane / Be Mine Tonight
--------------------------------------------------------------------------------

DR         Peak         RMS     Duration Track
--------------------------------------------------------------------------------
DR8        0.00 dB    -9.08 dB      2:22 01-Pan, Amor, y Cha Cha Cha (remastered)
DR9        0.00 dB   -10.63 dB      3:24 02-Take It Easy (remastered)
DR10       0.00 dB   -12.91 dB      4:01 03-Noche De Ronda (Be Mine Tonight) (remastered)
DR7        0.00 dB    -8.79 dB      2:29 04-Too Marvelous For Words (remastered)
DR7        0.00 dB   -10.10 dB      2:40 05-Nightingale (remastered)
DR9        0.00 dB   -10.31 dB      2:19 06-Oyeme Mama (remastered)
DR8        0.00 dB    -9.28 dB      2:32 07-Whatever Lola Wants (remastered)
DR9        0.00 dB   -11.78 dB      3:19 08-Arrivederci Roma (remastered)
DR9        0.00 dB   -10.97 dB      2:50 09-Aquellos Ojos Verdes (remastered)
DR8        0.00 dB    -9.28 dB      2:33 10-Anna (remastered)
DR10       0.00 dB   -13.31 dB      2:53 11-La Seine (remastered)
DR9        0.00 dB   -11.05 dB      2:31 12-Babalu (remastered)
--------------------------------------------------------------------------------

Number of tracks:  12
Official DR value: DR9

Samplerate:        44100 Hz
Channels:          2
Bits per sample:   24
Bitrate:           730 kbps
Codec:             FLAC
================================================================================
Приватный:
Нет (DHT включён)
Размер:
181.78 Мб (190,612,302 байт) » файлов: 14
Участники:
1 раздают, 0 качают (1 участников всего)
Внешние участники:
--- [ Обновить ]
No seeders - write a personal message to user M0p94ok. Нет сидеров - пишите личное сообщение пользователю M0p94ok.
10:49
20
Нет комментариев. Ваш будет первым!