Поиск

1984 Pat Metheny - Rejoicing (2020) {ECM} [24-96]

1984 Pat Metheny - Rejoicing (2020) {ECM} [24-96]
Стили:
Издатель (лейбл):
Битрейт аудио:
lossless
Треклист:

01 - Lonely Woman 06:55
02 - Tears Inside 03:50
03 - Humpty Dumpty 05:42
04 - Blues For Pat 06:05
05 - Rejoicing 03:19
06 - Story From A Stranger 05:53
07 - The Calling 09:51
08 - Waiting For An Answer 02:17

Доп. инфо:

Формат записи/Источник записи: [TR24][OF]
Издание: Remastered
Год издания/переиздания диска: 1984/2020
Продолжительность: 00:43:46
Наличие сканов в содержимом раздачи: Буклет PDF

Контейнер: FLAC (*.flac)
Тип рипа: tracks
Разрядность: 24/96
Количество каналов: 2.0

Источник (релизер): e-onkyo

Лог проверки качества
foobar2000 1.4.3 / Dynamic Range Meter 1.1.1
log date: 2020-08-02 18:09:15

--------------------------------------------------------------------------------
Analyzed: Pat Metheny / Rejoicing
--------------------------------------------------------------------------------

DR         Peak         RMS     Duration Track
--------------------------------------------------------------------------------
DR14      -2.38 dB   -21.03 dB      6:55 01-Lonely Woman
DR12      -2.06 dB   -16.99 dB      3:50 02-Tears Inside
DR13      -1.01 dB   -17.47 dB      5:42 03-Humpty Dumpty
DR13      -1.53 dB   -18.37 dB      6:05 04-Blues For Pat
DR14      -1.81 dB   -18.63 dB      3:19 05-Rejoicing
DR12      -1.55 dB   -17.94 dB      5:53 06-Story From A Stranger
DR12      -0.63 dB   -15.91 dB      9:51 07-The Calling
DR11     -12.71 dB   -29.47 dB      2:17 08-Waiting For An Answer
--------------------------------------------------------------------------------

Number of tracks:  8
Official DR value: DR13

Samplerate:        96000 Hz
Channels:          2
Bits per sample:   24
Bitrate:           2666 kbps
Codec:             FLAC
================================================================================
Приватный:
Нет (DHT включён)
Размер:
941.21 Мб (986,927,581 байт) » файлов: 14
Участники:
0 раздают, 0 качают (0 участников всего)
Внешние участники:
20 раздают, 7 качают (27 участников всего) [ Обновить ]
No seeders - write a personal message to user M0p94ok. Нет сидеров - пишите личное сообщение пользователю M0p94ok.
10:23
22
Нет комментариев. Ваш будет первым!