Вы используете незарегистрированную версию компонента "Вкладки"!

Поиск

2018 Piano_el - Dec - Rest {WM Korea} [24-48]

2018 Piano_el - Dec - Rest {WM Korea} [24-48]
Стили:
Носитель:
WEB
Формат:
PCM
Тип рипа:
tracks+.cue
Контейнер:
FLAC (*.flac)
Количество каналов:
2.0
Разрядность/ЧД:
24/48
Битрейт аудио:
lossless
Наличие сканов:
web
Страна-производитель диска (релиза):
Korea
Релизёр (источник):
M0p94ok
Лог проверки качества
foobar2000 1.3.16 / Dynamic Range Meter 1.1.1
log date: 2018-12-17 15:53:47

--------------------------------------------------------------------------------
Analyzed: Piano:el / Dec: Rest
--------------------------------------------------------------------------------

DR         Peak         RMS     Duration Track
--------------------------------------------------------------------------------
DR9       -0.10 dB   -11.03 dB      2:21 01-Yellow Lights
DR12      -0.10 dB   -16.41 dB      2:45 02-12 O'clock
DR10      -0.10 dB   -12.53 dB      1:42 03-Night is Coming
DR10      -0.10 dB   -11.78 dB      1:49 04-Bright Sunlight
DR10      -0.10 dB   -12.40 dB      1:54 05-Empty Table
DR10      -0.10 dB   -11.80 dB      2:25 06-Graze
DR10      -0.10 dB   -13.53 dB      1:08 07-Streetlamps for Spotlights
DR12      -0.10 dB   -16.66 dB      1:45 08-Just Chill
DR10      -0.10 dB   -12.98 dB      1:50 09-Eyes Keep Closing
DR12      -0.10 dB   -15.77 dB      1:46 10-My First Dream
DR10      -0.10 dB   -12.77 dB      2:24 11-Start of A Day
DR10      -0.10 dB   -12.36 dB      1:23 12-Holiday
DR10      -0.10 dB   -12.10 dB      1:45 13-Cloudy Day
DR10      -0.10 dB   -12.91 dB      1:25 14-Tonight Is
DR11      -0.10 dB   -15.86 dB      1:51 15-Let It Flow
DR11      -0.10 dB   -14.76 dB      1:48 16-Sitting On a Sofa
DR11      -0.10 dB   -14.30 dB      1:36 17-Languor
DR12      -0.10 dB   -15.13 dB      1:30 18-Evening Sky
DR12      -0.10 dB   -15.50 dB      1:33 19-Endlessly
DR10      -0.10 dB   -13.33 dB      1:46 20-In My Dream
DR10      -0.10 dB   -12.04 dB      1:42 21-Blurred
DR11      -0.10 dB   -14.40 dB      1:37 22-Moon In The Mirror
DR9       -0.10 dB   -12.12 dB      2:03 23-Walk Alone
DR11      -0.10 dB   -15.26 dB      1:21 24-A Rustling Wind
DR12      -0.10 dB   -14.43 dB      2:06 25-The Alarm Clock
DR11      -0.10 dB   -13.96 dB      1:11 26-Breakfast On The Morning
DR11      -0.10 dB   -13.04 dB      1:20 27-Sunny Morning On My Day
DR11      -0.10 dB   -13.44 dB      1:11 28-Once Again It's the Night
DR11      -0.10 dB   -13.95 dB      2:49 29-Cozy Room, Fluffy Blanket
DR10      -0.10 dB   -14.35 dB      1:52 30-Sleep
--------------------------------------------------------------------------------

Number of tracks:  30
Official DR value: DR11

Samplerate:        48000 Hz
Channels:          2
Bits per sample:   24
Bitrate:           1239 kbps
Codec:             FLAC
================================================================================
Any questions - support@pro-jazz.com. Есть вопросы - support@pro-jazz.com
22:22
233
Нет комментариев. Ваш будет первым!