Вы используете незарегистрированную версию компонента "Вкладки"!

Поиск

2019 Max Paparella Organization - The Acid Jazz Mixtape {Irma Iyaly IRM1782} [24-44,1]

2019 Max Paparella Organization - The Acid Jazz Mixtape {Irma Iyaly IRM1782} [24-44,1]
Стили:
Дата издания диска:
11 января 2019
Носитель:
WEB
Формат:
PCM
Тип рипа:
tracks+.cue
Контейнер:
FLAC (*.flac)
Количество каналов:
2.0
Разрядность/ЧД:
24/44,1
Битрейт аудио:
lossless
Время звучания:
00:51:38
Наличие сканов:
web
Страна-производитель диска (релиза):
Italy
Релизёр (источник):
M0p94ok
Лог проверки качества
foobar2000 1.3.16 / Dynamic Range Meter 1.1.1
log date: 2019-01-15 21:06:09

--------------------------------------------------------------------------------
Analyzed: Max Paparella Organization / The Acid Jazz Mixtape
--------------------------------------------------------------------------------

DR         Peak         RMS     Duration Track
--------------------------------------------------------------------------------
DR7       -0.98 dB    -9.08 dB      4:32 01-Leo's Party
DR8       -0.98 dB    -9.60 dB      3:16 02-Bliss (feat. Paolo Apollo Negri)
DR7       -0.98 dB    -8.76 dB      5:01 03-To the City (feat. Paolo Apollo Negri)
DR8       -0.98 dB   -10.43 dB      4:20 04-Don't Be Afraid
DR8       -0.98 dB    -9.27 dB      4:31 05-After Breakfast
DR9       -0.98 dB   -10.43 dB      6:06 06-Move On
DR7       -0.98 dB    -9.40 dB      6:01 07-Jaywalkin'
DR8       -0.98 dB   -10.33 dB      3:43 08-Scramble (feat. Paolo Apollo Negri)
DR8       -0.98 dB    -9.70 dB      3:48 09-Six A.M. (feat. Paolo Apollo Negri)
DR8       -0.98 dB   -10.53 dB      3:31 10-Wisdom (feat. Paolo Apollo Negri)
DR8       -0.98 dB   -10.12 dB      6:54 11-One Way Ticket
--------------------------------------------------------------------------------

Number of tracks:  11
Official DR value: DR8

Samplerate:        44100 Hz
Channels:          2
Bits per sample:   24
Bitrate:           1660 kbps
Codec:             FLAC
================================================================================
Any questions - support@pro-jazz.com. Есть вопросы - support@pro-jazz.com
20:45
292
Нет комментариев. Ваш будет первым!