Вы используете незарегистрированную версию компонента "Вкладки"!

Поиск

1984 Pat Metheny Group - First Circle (2020) {ECM} [24-96]

1984 Pat Metheny Group - First Circle (2020) {ECM} [24-96]
Стили:
Издатель (лейбл):
Битрейт аудио:
lossless
Доп. инфо:

Формат записи/Источник записи: [TR24][OF]
Издание: Remastered
Год издания/переиздания диска: 1984/2020
Жанр: Jazz
Издатель (лейбл): ECM Records
Продолжительность: 00:50:00
Наличие сканов в содержимом раздачи: Буклет PDF

Контейнер: FLAC (*.flac)
Тип рипа: tracks
Разрядность: 24/96
Количество каналов: 2.0

Источник (релизер): e-onkyo

Лог проверки качества
foobar2000 1.4.3 / Dynamic Range Meter 1.1.1
log date: 2020-08-02 13:32:47

--------------------------------------------------------------------------------
Analyzed: Pat Metheny Group / First Circle
--------------------------------------------------------------------------------

DR         Peak         RMS     Duration Track
--------------------------------------------------------------------------------
DR14      -0.55 dB   -17.92 dB      2:53 01-Forward March
DR12      -0.70 dB   -15.36 dB      4:49 02-Yolanda, You Learn
DR11      -0.43 dB   -15.32 dB      9:16 03-The First Circle
DR13      -6.07 dB   -22.71 dB      7:01 04-If I Could
DR13      -2.59 dB   -18.03 dB      8:00 05-Tell It All
DR13      -0.84 dB   -17.77 dB      8:02 06-End Of The Game
DR11      -3.44 dB   -19.16 dB      5:40 07-Mas Alla (Beyond)
DR12      -2.05 dB   -16.53 dB      4:22 08-Praise
--------------------------------------------------------------------------------

Number of tracks:  8
Official DR value: DR12

Samplerate:        96000 Hz
Channels:          2
Bits per sample:   24
Bitrate:           3009 kbps
Codec:             FLAC
================================================================================
Any questions - support@pro-jazz.com. Есть вопросы - support@pro-jazz.com
16:43
344
Нет комментариев. Ваш будет первым!