Поиск

2020 NOVA - Quarantine Series Vol. 1 {Velvet Mind Group} [24-48]

2020 NOVA - Quarantine Series Vol. 1 {Velvet Mind Group} [24-48]
Стили:
Дата издания диска:
12 января 2020
Битрейт аудио:
lossless
Доп. инфо:

Формат записи/Источник записи: [TR24][OF]
Наличие водяных знаков: Нет
Год издания/переиздания диска: 2020
Издатель (лейбл): Velvet Mind Group
Продолжительность: 00:40:37
Наличие сканов в содержимом раздачи: Нет

Контейнер: FLAC (*.flac)
Тип рипа: tracks
Разрядность: 24/48
Формат: PCM
Количество каналов: 2.0

Источник (релизер): https://www.bossabynova.com/store

Лог проверки качества
foobar2000 1.3.17 / Замер динамического диапазона (DR) 1.1.1
Дата отчёта:  2020-11-24 09:33:48

--------------------------------------------------------------------------------
Анализ:   NOVA / -PRE-ORDER- Quarantine Series Vol. 1
--------------------------------------------------------------------------------

DR         Пики         RMS           Продолжительность трека
--------------------------------------------------------------------------------
DR11      -0.18 дБ   -14.18 дБ      4:49 01-01 - NOVA - Samba Em Preludio
DR12       0.00 дБ   -13.62 дБ      5:10 02-02 - NOVA - Tarde Em Itapuã
DR11       0.00 дБ   -12.33 дБ      4:18 03-03 - NOVA - Tristeza
DR11      -0.16 дБ   -14.45 дБ      4:15 04-04 - NOVA - Eu Sei Que Vou Te Amar
DR11       0.00 дБ   -12.47 дБ      4:41 05-05 - NOVA - Aquarela Do Brasil
DR11      -0.01 дБ   -13.64 дБ      3:08 06-06 - NOVA - Tuyo
DR12       0.00 дБ   -14.08 дБ      2:31 07-07 - NOVA - Upa Neguinho
DR12      -1.44 дБ   -16.39 дБ      5:31 08-08 - NOVA - Once I Loved
DR8       -0.98 дБ   -13.67 дБ      3:16 09-09 - NOVA - Fotografia
DR12       0.00 дБ   -15.45 дБ      2:57 10-10 - NOVA - Berimbau
--------------------------------------------------------------------------------

Количество треков: 10
Реальные значения DR: DR11

Частота:   48000 Гц
Каналов:   2
Разрядность:   24
Битрейт:   1580 кбит/с
Кодек:   FLAC
================================================================================
No seeders - write personal message to M0p94ok. Any questions - support@pro-jazz.com.
Нет сидеров - пишите в личку M0p94ok. Есть вопросы - support@pro-jazz.com
02:22
189
Нет комментариев. Ваш будет первым!